.
Авторизация | Регистрация
Хочешь лучшие торренты? Добавь свой email!
Добавить

Торрент скачать бесплатно

» » Доктор Котов (2018) WEB-DLRip (серии 1-4 из 4) торрент скачать бесплатно


    Доктор Котов (2018) WEB-DLRip (серии 1-4 из 4) торрент скачать бесплатно

    Опубликовал: Админ | Дата: 1-04-2018, 05:00 | .torrent скачали: 0

    Доктор Котов (2018) WEB-DLRip (серии 1-4 из 4)Производство: Россия/Кинокомпания Гамма
    Жанр: Комедия, мелодрама
    Режиссер: Ашот Кещян

    Актеры
    Иван Оганесян, Светлана Антонова, Дмитрий Мазуров, Виолетта Давыдовская, Любовь Зайцева, Илья Бледный, Нодар Джанелидзе, Сергей Пиоро, Виктория Лукина, Людмила Гаврилова

    Описание

    Накануне свадьбы Риты Полуниной и Павла Захаркина в аварию попадает сестра невесты, Светлана. Чтобы не дать пропасть делу всей жизни Светланы, Рита отменяет свадьбу и принимает на себя руководство ее ветеринарной клиникой. Каково же удивление Полуниной, когда она узнает, что лучший специалист клиники - ее заклятый враг и по совместительству бывший возлюбленный Федор Котов. Не сумев найти общего языка спустя много лет после расставания, Рита и Федор начинают войну по выживанию друг друга из клиники...
    Дата премьеры в России: 31 марта 2018
    Продолжительность: ~00: 50: 00 серия
    Качество видео: WEB-DLRip
    Видео: XviD, 720x400, ~1502 Kbps
    Аудио: AC-3, 2 ch, 192 Kbps

    Общее
    Полное имя : E: NNMДоктор КотовDoktor Kotov 2018 WEB-DLRip AVC1.Doktor.avi
    Формат : AVI
    Формат/Информация : Audio Video Interleave
    Размер файла : 600 Мбайт
    Продолжительность : 49 м. 13 с.
    Общий поток : 1703 Кбит/сек
    Программа кодирования : VirtualDubMod 1.5.10.3 |www.virtualdub-fr.org|| (build 2550/release)
    Библиотека кодирования : VirtualDubMod build 2550/release
    Видео
    Идентификатор : 0
    Формат : MPEG-4 Visual
    Профиль формата : Advanced Simple@L5
    Настройки формата : BVOP1/Custom Matrix
    Параметр BVOP формата : 1
    Параметр QPel формата : Нет
    Параметр GMC формата : Без точки перехода
    Параметр матрицы формата : Выборочная
    Идентификатор кодека : XVID
    Идентификатор кодека/Подсказка : XviD
    Продолжительность : 49 м. 13 с.
    Битрейт : 1502 Кбит/сек
    Ширина : 720 пикселей
    Высота : 400 пикселей
    Соотношение сторон : 16: 9
    Частота кадров : 24, 000 кадра/сек
    Цветовое пространство : YUV
    Субдискретизация насыщенности : 4: 2: 0
    Битовая глубина : 8 бит
    Тип развёртки : Прогрессивная
    Метод сжатия : С потерями
    Бит/(Пиксели*Кадры) : 0.217
    Размер потока : 529 Мбайт (88%)
    Библиотека кодирования : XviD 73
    Аудио
    Идентификатор : 1
    Формат : AC-3
    Формат/Информация : Audio Coding 3
    Идентификатор кодека : 2000
    Продолжительность : 49 м. 13 с.
    Вид битрейта : Постоянный
    Битрейт : 192 Кбит/сек
    Каналы : 2 канала
    Расположение каналов : Front: L R
    Частота : 48, 0 КГц
    Частота кадров : 31, 250 кадров/сек (1536 SPF)
    Битовая глубина : 16 бит
    Метод сжатия : С потерями
    Размер потока : 67, 6 Мбайт (11%)
    Выравнивание : Разделение по промежуткам
    Продолжительность промежутка : 42 мс. (1, 00 видеокадр)
    Время предзагрузки промежутка : 500 мс.
    ServiceKind/String : Complete Main

    Скриншоты для ознакомления



    Все одноименные релизы в Клубе Время раздачи: 24/7 (до появления первых 3-5 скачавших)


    Онлайн видео Доктор Котов (2018) WEB



    Доктор Котов (2018) WEB-DLRip (серии 1-4 из 4)
    Рейтинг →
     (голосов: 1, оценка 5/5, голосовать можно 1 раз )

    Другие торренты по теме:

  • Доктор Котов (2018) WEB-DLRip [H.264 / 1080p-LQ] (серии 1-4 из 4)


    • Комментарии (0):

      Информация

      Информация

        Посетители, находящиеся в группе Гости, не могут оставлять комментарии в данной новости.

        ↓ Меню




        ↓ Опрос

        Вы добавили сайт в закладки?
        Да
        Нет


        Top 10 за месяц (Фильмы)