.
Авторизация | Регистрация
Хочешь лучшие торренты? Добавь свой email!
Добавить

Торрент скачать бесплатно

» » Белый Олеандр / White Oleander (2002) WEB-DLRip [H.264] торрент скачать бесплатно


    Белый Олеандр / White Oleander (2002) WEB-DLRip [H.264] торрент скачать бесплатно

    Опубликовал: Админ | Дата: 1-04-2018, 05:00 | .torrent скачали: 0

    Белый Олеандр / White Oleander (2002) WEB-DLRip [H.264]Производство: США/Gaylord Films, John Wells Productions, Oleandor Productions, Pandora Filmproduktion GmbH, Warner Bros. Pictures
    Жанр: Драма
    Режиссер: Питер Козмински
    Продюсер: Хант Лоури, Джон Уэллс, Стэйси Коэн

    Актеры
    Элисон Ломан, Мишель Пфайффер, Робин Райт, Рене Зеллвегер, Эми Акино, Билли Коннолли, Светлана Ефремова, Патрик Фьюджит, Тэрин Мэннинг, Коул Хаузер

    Описание

    Беспечная и счастливая калифорнийская жизнь молодой девушки Астрид и её матери Ингрид заканчивается с приходом загадочного Барри Колкера. Страсть, разгоревшаяся между Ингрид и Барри, вскоре угасает. Сердце Ингрид разбито, она жаждет мести и решает отравить возлюбленного ядом своего любимого цветка — белого олеандра.

    Возраст: 16+ (зрителям, достигшим 16 лет)
    Рейтинг MPAA: PG-13 (детям до 13 лет просмотр нежелателен)
    Релиз от: Охрана (NNMCLUB)
    Продолжительность: 01: 49: 30
    Качество видео: WEB-DLRip
    Перевод: Дублированный, многоголосый закадровый, двуголосый закадровый
    Субтитры: Русские, английские (SDH)
    Видео: AVC/H.264, 1024x576, ~2575 Kbps
    Аудио 1: Русский, AC3, 2 ch, 192 Kbps, 48.0 kHz (Dub, Пирамида)
    Аудио 2: Русский, AC3, 2 ch, 192 Kbps, 48.0 kHz (MVO, Синема Трейд)
    Аудио 3: Русский, AC3, 2 ch, 192 Kbps, 48.0 kHz (DVO, CP Дистрибуция)
    Аудио 4: Английский, AC3, 2 ch, 192 Kbps, 48.0 kHz (Оригинал)

    Общее
    Уникальный идентификатор : 217468684527662579463668478761509808406 (0xA39AF1F556E5107AADD33BF17F6B6916)
    Полное имя : F: DownloadsБелый Олеандр. 2002. NNMCLUB.mkv
    Формат : Matroska
    Версия формата : Version 4/Version 2
    Размер файла : 2, 56 Гбайт
    Продолжительность : 1 ч. 49 м.
    Общий поток : 3342 Кбит/сек
    Дата кодирования : UTC 2018-03-29 22: 21: 35
    Программа кодирования : mkvmerge v7.9.0 (\'Birds\') 64bit
    Библиотека кодирования : libebml v1.3.1 + libmatroska v1.4.2
    Видео
    Идентификатор : 1
    Формат : AVC
    Формат/Информация : Advanced Video Codec
    Профиль формата : High@L4.1
    Настройки формата : CABAC/10 Ref Frames
    Параметр CABAC формата : Да
    Параметр RefFrames формата : 10 кадров
    Идентификатор кодека : V_MPEG4/ISO/AVC
    Продолжительность : 1 ч. 49 м.
    Битрейт : 2575 Кбит/сек
    Ширина : 1024 пикселя
    Высота : 576 пикселей
    Соотношение сторон : 16: 9
    Режим частоты кадров : Постоянный
    Частота кадров : 23, 976 (24000/1001) кадра/сек
    Цветовое пространство : YUV
    Субдискретизация насыщенности : 4: 2: 0
    Битовая глубина : 8 бит
    Тип развёртки : Прогрессивная
    Бит/(Пиксели*Кадры) : 0.182
    Размер потока : 1, 97 Гбайт (77%)
    Заголовок : White Oleander
    Библиотека кодирования : x264 core 146 r2538 121396c
    Настройки программы : cabac=1/ref=10/deblock=1: -1: -1/analyse=0x3: 0x113/me=umh/subme=10/psy=1/psy_rd=1.00: 0.10/mixed_ref=1/me_range=32/chroma_me=1/trellis=2/8x8dct=1/cqm=0/deadzone=21, 11/fast_pskip=0/chroma_qp_offset=-3/threads=6/lookahead_threads=1/sliced_threads=0/nr=0/decimate=0/interlaced=0/bluray_compat=0/constrained_intra=0/bframes=7/b_pyramid=2/b_adapt=2/b_bias=0/direct=3/weightb=1/open_gop=0/weightp=2/keyint=250/keyint_min=25/scenecut=40/intra_refresh=0/rc_lookahead=60/rc=2pass/mbtree=1/bitrate=2575/ratetol=1.0/qcomp=0.60/qpmin=0/qpmax=69/qpstep=4/cplxblur=20.0/qblur=0.5/vbv_maxrate=14000/vbv_bufsize=14000/nal_hrd=none/filler=0/ip_ratio=1.40/aq=1: 1.00
    Язык : English
    Default : Да
    Forced : Нет
    Аудио #1
    Идентификатор : 2
    Формат : AC-3
    Формат/Информация : Audio Coding 3
    Идентификатор кодека : A_AC3
    Продолжительность : 1 ч. 49 м.
    Вид битрейта : Постоянный
    Битрейт : 192 Кбит/сек
    Каналы : 2 канала
    Расположение каналов : Front: L R
    Частота : 48, 0 КГц
    Частота кадров : 31, 250 кадров/сек (1536 SPF)
    Битовая глубина : 16 бит
    Метод сжатия : С потерями
    Размер потока : 150 Мбайт (6%)
    Заголовок : Дубляж
    Язык : Russian
    ServiceKind/String : Complete Main
    Default : Да
    Forced : Нет
    Аудио #2
    Идентификатор : 3
    Формат : AC-3
    Формат/Информация : Audio Coding 3
    Идентификатор кодека : A_AC3
    Продолжительность : 1 ч. 49 м.
    Вид битрейта : Постоянный
    Битрейт : 192 Кбит/сек
    Каналы : 2 канала
    Расположение каналов : Front: L R
    Частота : 48, 0 КГц
    Частота кадров : 31, 250 кадров/сек (1536 SPF)
    Битовая глубина : 16 бит
    Метод сжатия : С потерями
    Размер потока : 150 Мбайт (6%)
    Заголовок : Многоголосый закадровый
    Язык : Russian
    ServiceKind/String : Complete Main
    Default : Нет
    Forced : Нет
    Аудио #3
    Идентификатор : 4
    Формат : AC-3
    Формат/Информация : Audio Coding 3
    Идентификатор кодека : A_AC3
    Продолжительность : 1 ч. 47 м.
    Вид битрейта : Постоянный
    Битрейт : 192 Кбит/сек
    Каналы : 2 канала
    Расположение каналов : Front: L R
    Частота : 48, 0 КГц
    Частота кадров : 31, 250 кадров/сек (1536 SPF)
    Битовая глубина : 16 бит
    Метод сжатия : С потерями
    Размер потока : 148 Мбайт (6%)
    Заголовок : Двуголосый закадровый
    Язык : Russian
    ServiceKind/String : Complete Main
    Default : Нет
    Forced : Нет
    Аудио #4
    Идентификатор : 5
    Формат : AC-3
    Формат/Информация : Audio Coding 3
    Идентификатор кодека : A_AC3
    Продолжительность : 1 ч. 49 м.
    Вид битрейта : Постоянный
    Битрейт : 192 Кбит/сек
    Каналы : 2 канала
    Расположение каналов : Front: L R
    Частота : 48, 0 КГц
    Частота кадров : 31, 250 кадров/сек (1536 SPF)
    Битовая глубина : 16 бит
    Метод сжатия : С потерями
    Размер потока : 150 Мбайт (6%)
    Заголовок : Оригинал
    Язык : English
    ServiceKind/String : Complete Main
    Default : Нет
    Forced : Нет
    Текст #1
    Идентификатор : 6
    Формат : UTF-8
    Идентификатор кодека : S_TEXT/UTF8
    Идентификатор кодека/Информация : UTF-8 Plain Text
    Продолжительность : 1 ч. 45 м.
    Битрейт : 101 бит/сек
    ElementCount : 1264
    Размер потока : 78, 4 Кбайт (0%)
    Заголовок : SRT
    Язык : Russian
    Default : Нет
    Forced : Нет
    Текст #2
    Идентификатор : 7
    Формат : UTF-8
    Идентификатор кодека : S_TEXT/UTF8
    Идентификатор кодека/Информация : UTF-8 Plain Text
    Продолжительность : 1 ч. 44 м.
    Битрейт : 52 бит/сек
    ElementCount : 1494
    Размер потока : 40, 6 Кбайт (0%)
    Заголовок : Original/SDH
    Язык : English
    Default : Нет
    Forced : Нет

    Скриншоты для ознакомления




    Все одноименные релизы в Клубе
    Время раздачи: с 13: 00 до 01: 00 МСК, выходные круглосуточно (до появления первых 3-5 скачавших)


    Онлайн видео Белый Олеандр



    Белый Олеандр/White Oleander (2002) WEB-DLRip [H.264]
    Рейтинг →
     (голосов: 1, оценка 5/5, голосовать можно 1 раз )

    Другие торренты по теме:

  • Белый башлык (1976) TVRip
  • [Фотография] Черно-белый мир. Фотографии пользователей NoNaMe Club
  • Белый лебедь / Assassins Run (2013) HDRip скачать через торрент бесплатно
  • Белый воротничок / White Collar (2014) WEB-DL [H.264 / 1080p-LQ] (Сезон 6, серия 1 из ) (NewStudio) (обновляемая) скачать через торрент бесплатно
  • Белый воротничок / White Collar (2014) WEB-DLRip (сезон 6, серии 1-2 из 13) NewStudio (обновляемая)
  • Белый воротничок / White Collar (2014) WEB-DL [H.264 / 720p-LQ] (сезон 6, серии 1-2 из 13) NewStudio (обновляемая)
  • Белый круг (1974) VHSRip скачать через торрент бесплатно
  • Анна Гарф | Белый слон и часы с кукушкой (1981) [DJVU]


    • Комментарии (0):

      Информация

      Информация

        Посетители, находящиеся в группе Гости, не могут оставлять комментарии в данной новости.

        ↓ Меню




        ↓ Опрос

        Вы добавили сайт в закладки?
        Да
        Нет


        Top 10 за месяц (Фильмы)