.
Авторизация | Регистрация
Хочешь лучшие торренты? Добавь свой email!
Добавить

Торрент скачать бесплатно

» » Слепая / Blind / Beul-la-in-deu (2011) BDRip [H.265 / 1080p-LQ] [10-bit] торрент скачать бесплатно


    Слепая / Blind / Beul-la-in-deu (2011) BDRip [H.265 / 1080p-LQ] [10-bit] торрент скачать бесплатно

    Опубликовал: Админ | Дата: 1-04-2018, 05:00 | .torrent скачали: 0

    Слепая / Blind / Beul-la-in-deu (2011) BDRip [H.265 / 1080p-LQ] [10-bit]Производство: Корея Южная/MoonWatcher Co., Next Entertainment World
    Жанр: Триллер, Драма
    Режиссер: Ан Сан-Хун
    Продюсер: Энди Юн

    Актеры
    Ким Ха Ныль, Ю Сын Хо, Чо Хи Бон, Ян Ён-чжо, Ким Ми Кён, Чхун-сон Пак, Пак Бо Геом, Даль-и, Вон Пун-Ён, Ын-сок Чхве

    Описание

    Попав с братом в аварию, Мин Су А теряет и брата, и собственное зрение, а потому вынуждена оставить мечту стать полицейским. С тех пор прошло уже три года, а она до сих пор вспоминает ту ночь и так и не может смириться со своей слепотой. Однажды вечером, сев в такси, Су А оказывается в обществе очень странного шофёра: он пытается заставить её выпить кофе и, отвлёкшись, сбивает кого-то на дороге. Кого? Он утверждает, что собаку. Но Су А не верит ему - слух подсказывает ей иное. Шофёр скрывается на машине, а Су А заявляет о происшествии в полицию. Сюда же обращается и паренёк - второй свидетель аварии. Начинаются поиски преступника. Но и он, со своей стороны, следит за обоими свидетелями, чтобы улучить момент и убрать их со своего пути.

    Рейтинг MPAA: этот продукт не был классифицирован
    Релиз от: Goor80
    Продолжительность: 01: 50: 48
    Качество видео: BDRip
    Перевод: Многоголосый закадровый, Одноголосый закадровый x3
    Субтитры: русские x3
    Видео: HEVC/H.265, 1920x800, ~6905 Kbps
    Аудио 1: AAC, 2 ch, 152 Kbps (русский, многоголосый - STEPonee)
    Аудио 2: AC3, 6 ch, 448 Kbps (русский, одноголосый - Den904)
    Аудио 3: AC3, 6 ch, 448 Kbps (русский, одноголосый - CyberVlad)
    Аудио 4: AC3, 2 ch, 192 Kbps (русский, одноголосый - Recitant)
    Аудио 5: AC3, 6 ch, 448 Kbps (корейский)

    Общее
    Уникальный идентификатор : 179402063406871028181432376457184479512 (0x86F794A233DCB0269D7EA262FDED0918)
    Полное имя : E: VideoСлепая (Blind).mkv
    Формат : Matroska
    Версия формата : Version 4/Version 2
    Размер файла : 6, 65 Гбайт
    Продолжительность : 1 ч. 50 м.
    Общий поток : 8597 Кбит/сек
    Название фильма : Слепая/Blind/Beulraindeu/블라인드
    Дата выпуска : 2011
    Дата кодирования : UTC 2018-03-31 05: 03: 43
    Программа кодирования : mkvmerge v20.0.0 (\'I Am The Sun\') 64-bit
    Библиотека кодирования : libebml v1.3.5 + libmatroska v1.4.8
    Авторское право : Encoded by Goor80
    Обложка : Yes
    Attachments : cover.jpg
    Released by : Buba5473 for NNM-Club
    Видео
    Идентификатор : 1
    Формат : HEVC
    Формат/Информация : High Efficiency Video Coding
    Профиль формата : Main10@L4.1@Main
    Идентификатор кодека : V_MPEGH/ISO/HEVC
    Продолжительность : 1 ч. 50 м.
    Битрейт : 6905 Кбит/сек
    Ширина : 1920 пикселей
    Высота : 800 пикселей
    Соотношение сторон : 2, 40: 1
    Режим частоты кадров : Постоянный
    Частота кадров : 23, 976 (24000/1001) кадра/сек
    Стандарт вещания : Component
    Цветовое пространство : YUV
    Субдискретизация насыщенности : 4: 2: 0
    Битовая глубина : 10 бит
    Бит/(Пиксели*Кадры) : 0.188
    Размер потока : 5, 34 Гбайт (80%)
    Default : Да
    Forced : Нет
    Цветовой диапазон : Limited
    Аудио #1
    Идентификатор : 2
    Формат : AAC
    Формат/Информация : Advanced Audio Codec
    Профиль формата : LC
    Идентификатор кодека : A_AAC
    Продолжительность : 1 ч. 50 м.
    Битрейт : 152 Кбит/сек
    Каналы : 2 канала
    Расположение каналов : Front: L R
    Частота : 44, 1 КГц
    Частота кадров : 43, 066 кадра/сек (1024 spf)
    Метод сжатия : С потерями
    Задержка видео : 2 с. 315 мс.
    Размер потока : 120 Мбайт (2%)
    Заголовок : Перевод: многоголосый, STEPonee
    Язык : Russian
    Default : Да
    Forced : Нет
    Аудио #2
    Идентификатор : 3
    Формат : AC-3
    Формат/Информация : Audio Coding 3
    Параметр Endianness формата : Big
    Идентификатор кодека : A_AC3
    Продолжительность : 1 ч. 50 м.
    Вид битрейта : Постоянный
    Битрейт : 448 Кбит/сек
    Каналы : 6 каналов
    Расположение каналов : Front: L C R, Side: L R, LFE
    Частота : 48, 0 КГц
    Частота кадров : 31, 250 кадров/сек (1536 spf)
    Битовая глубина : 16 бит
    Метод сжатия : С потерями
    Размер потока : 355 Мбайт (5%)
    Заголовок : Den904
    Язык : Russian
    ServiceKind/String : Complete Main
    Default : Нет
    Forced : Нет
    Аудио #3
    Идентификатор : 4
    Формат : AC-3
    Формат/Информация : Audio Coding 3
    Параметр Endianness формата : Big
    Идентификатор кодека : A_AC3
    Продолжительность : 1 ч. 50 м.
    Вид битрейта : Постоянный
    Битрейт : 448 Кбит/сек
    Каналы : 6 каналов
    Расположение каналов : Front: L C R, Side: L R, LFE
    Частота : 48, 0 КГц
    Частота кадров : 31, 250 кадров/сек (1536 spf)
    Битовая глубина : 16 бит
    Метод сжатия : С потерями
    Размер потока : 355 Мбайт (5%)
    Заголовок : CyberVlad
    Язык : Russian
    ServiceKind/String : Complete Main
    Default : Нет
    Forced : Нет
    Аудио #4
    Идентификатор : 5
    Формат : AC-3
    Формат/Информация : Audio Coding 3
    Параметр Endianness формата : Big
    Идентификатор кодека : A_AC3
    Продолжительность : 1 ч. 50 м.
    Вид битрейта : Постоянный
    Битрейт : 192 Кбит/сек
    Каналы : 2 канала
    Расположение каналов : Front: L R
    Частота : 48, 0 КГц
    Частота кадров : 31, 250 кадров/сек (1536 spf)
    Битовая глубина : 16 бит
    Метод сжатия : С потерями
    Размер потока : 152 Мбайт (2%)
    Заголовок : Recitant
    Язык : Russian
    ServiceKind/String : Complete Main
    Default : Нет
    Forced : Нет
    Аудио #5
    Идентификатор : 6
    Формат : AC-3
    Формат/Информация : Audio Coding 3
    Параметр Endianness формата : Big
    Идентификатор кодека : A_AC3
    Продолжительность : 1 ч. 50 м.
    Вид битрейта : Постоянный
    Битрейт : 448 Кбит/сек
    Каналы : 6 каналов
    Расположение каналов : Front: L C R, Side: L R, LFE
    Частота : 48, 0 КГц
    Частота кадров : 31, 250 кадров/сек (1536 spf)
    Битовая глубина : 16 бит
    Метод сжатия : С потерями
    Размер потока : 355 Мбайт (5%)
    Язык : Korean
    ServiceKind/String : Complete Main
    Default : Нет
    Forced : Нет
    Текст #1
    Идентификатор : 7
    Формат : UTF-8
    Идентификатор кодека : S_TEXT/UTF8
    Идентификатор кодека/Информация : UTF-8 Plain Text
    Продолжительность : 1 ч. 46 м.
    Битрейт : 60 бит/сек
    ElementCount : 1167
    Размер потока : 47, 1 Кбайт (0%)
    Заголовок : Фансаб-группа \'Мания\'
    Язык : Russian
    Default : Нет
    Forced : Нет
    Текст #2
    Идентификатор : 8
    Формат : UTF-8
    Идентификатор кодека : S_TEXT/UTF8
    Идентификатор кодека/Информация : UTF-8 Plain Text
    Продолжительность : 1 ч. 47 м.
    Битрейт : 56 бит/сек
    ElementCount : 1053
    Размер потока : 44, 2 Кбайт (0%)
    Заголовок : Фансаб-группа \'Full Housel\'
    Язык : Russian
    Default : Нет
    Forced : Нет
    Текст #3
    Идентификатор : 9
    Формат : UTF-8
    Идентификатор кодека : S_TEXT/UTF8
    Идентификатор кодека/Информация : UTF-8 Plain Text
    Продолжительность : 1 ч. 46 м.
    Битрейт : 63 бит/сек
    ElementCount : 1035
    Размер потока : 49, 3 Кбайт (0%)
    Заголовок : Svartkatt
    Язык : Russian
    Default : Нет
    Forced : Нет
    Меню
    00: 00: 00.000 : en: 00: 00: 00.000
    00: 10: 56.364 : en: 00: 10: 56.364
    00: 24: 48.821 : en: 00: 24: 48.821
    00: 36: 39.572 : en: 00: 36: 39.572
    00: 42: 10.987 : en: 00: 42: 10.987
    00: 53: 56.692 : en: 00: 53: 56.692
    01: 10: 48.244 : en: 01: 10: 48.244
    01: 25: 08.937 : en: 01: 25: 08.937
    01: 35: 41.986 : en: 01: 35: 41.986
    01: 47: 05.419 : en: 01: 47: 05.419
    XMP
    Xmp.video.FileName : E: VideoСлепая (Blind).mkv
    Xmp.video.FileSize : -9.53674e-007
    Xmp.video.MimeType : video/matroska
    Xmp.video.EBMLVersion : 1
    Xmp.video.EBMLReadVersion : 1
    Xmp.video.DocType : matroska
    Xmp.video.DocTypeVersion : 4
    Xmp.video.DocTypeReadVersion : 2
    Xmp.video.TimecodeScale : 0.001
    Xmp.video.MuxingApp : libebml v1.3.5 + libmatroska v1.4.8
    Xmp.video.WritingApp : mkvmerge v20.0.0 (\'I Am The Sun\') 64-bit
    Xmp.video.Duration : 6647680
    Xmp.video.DateUTC : 544165423
    Xmp.video.Title : РЎРепая/Blind/Beulraindeu/лё”лќјмќёл“њ
    Xmp.video.TotalStream : 56
    Xmp.video.TrackLacing : No
    Xmp.video.Codec : V_MPEGH/ISO/HEVC
    Xmp.video.FrameRate : 23.976
    Xmp.video.TrackLang : und
    Xmp.video.Width : 1920
    Xmp.video.Height : 800
    Xmp.audio.Compressor : A_AC3
    Xmp.audio.DefaultDuration : 32000
    Xmp.audio.TrackLang : kor
    Xmp.video.TrackName : Svartkatt
    Xmp.audio.SampleRate : 48000
    Xmp.audio.ChannelType : Stereo
    Xmp.audio.DefaultOn : No
    Xmp.video.SubTDefaultOn : No
    Xmp.video.SubTTrackLacing : No
    Xmp.video.SubTCodec : S_TEXT/UTF8
    Xmp.video.SubTLang : rus
    Xmp.video.AttachFileName : cover.jpg
    Xmp.video.AttachFileMIME : image/jpeg
    Xmp.video.AttachFileUID : 4103077455978753714
    Xmp.video.AspectRatio : 2.4
    H.265/HEVC (High Efficiency Video Coding) - это новый стандарт кодирования видео.
    *Рипы в фомате HEVC, в настоящее время не поддерживается большинством аппаратных проигрывателей.
    *Для корректного воспроизведения может потребоваться обновление ПО.
    *Стандарт H.265/HEVC является логическим продолжением стандарта H.264/AVC (Advanced Video Coding), и характеризуется более эффективными алгоритмами сжатия, а также поддержкой высокого разрешения вплоть до 8K UHD (8192x4320). Первая версия стандарта H.265 была опубликована в начале 2013 года.
    Любителям решения из коробки - установить последнюю версию на выбор:
    Media Player Classic - Black Edition (MPC-BE)
    VLC media player
    Daum Pot Player
    GOM Media Player
    Любителям WMP и других плееров, использующих по умолчанию для воспроизведения системные кодеки+сплитеры - установить K-Lite Codec Pack версии 10.1.0 и выше.
    Любимые плееры, не использующии по умолчанию для воспроизведения системные кодеки+сплитеры, нужно перенастроить на использование оных.

    Скриншоты для ознакомления



    Все одноименные релизы в Клубе
    Время раздачи: с 11: 00 до 21: 00 по Новосибирску (UTC +7) (до появления первых 3-5 скачавших)


    Онлайн видео Слепая



    Слепая/Blind/Beul-la-in-deu (2011) BDRip [H.265/1080p-LQ] [10-bit]
    Рейтинг →
     (голосов: 1, оценка 5/5, голосовать можно 1 раз )

    Другие торренты по теме:

  • Слепая / Blind (2014) BDRip [H.264 / 1080p] [VO]
  • Слепая ярость / Blind Fury (1989) HDTVRip [h264] скачать через торрент бесплатно
  • Слепая ярость / Blind Fury (1989) BDRemux [H.264 / 1080p]
  • Слепая ярость / Blind Fury (1989) BDRip [H.264]
  • Слепая ярость / Blind Fury (1989) BDRip [H.264]
  • Слепая ярость / Blind Fury (1989) BDRip [H.264 / 1080p]
  • Immortal Love 3: Blind Desire / Бессмертная любовь 3. Слепая страсть (2017) [Ru] (1.0) Unofficial [Collectors Edition / Коллекционное издание]


    • Комментарии (0):

      Информация

      Информация

        Посетители, находящиеся в группе Гости, не могут оставлять комментарии в данной новости.

        ↓ Меню




        ↓ Опрос

        Вы добавили сайт в закладки?
        Да
        Нет


        Top 10 за месяц (Фильмы)