.
Авторизация | Регистрация
Хочешь лучшие торренты? Добавь свой email!
Добавить

Торрент скачать бесплатно

  • support: webmaster@btracker.org
» » Чудо-ребёнок / Prodigy (2017) HDRip [MVO] торрент скачать бесплатно


    Чудо-ребёнок / Prodigy (2017) HDRip [MVO] торрент скачать бесплатно

    Опубликовал: Админ | Дата: 1-04-2018, 05:00 | .torrent скачали: 1

    Чудо-ребёнок / Prodigy (2017) HDRip [MVO]Производство: США/High Noon California
    Жанр: Фантастика, триллер, драма
    Режиссер: Алекс Хофи, Брайан Видал

    Актеры
    Ричард Нил, Саванна Лилз, Джолин Андерсен, Эмилио Паламе, Дэвид Лински, Харви К. Джонсон, Арал Гриббл, Эйвери Баркдулл, Тревор Кастильо, Пенелопа Фигероа

    Описание

    Психолог вступает в опасную схватку умов с маленьким гением, но он не знает, что у девочки есть сверхъестественные способности, что ее жизнь висит на волоске, и только он может спасти ее.

    Дата мировой премьеры: 4 марта 2017
    Продолжительность: 01: 20: 29
    Качество видео: HDRip
    Перевод: Многоголосый закадровый, любительский (HDrezka Studio)
    Субтитры: Отсутствуют
    Видео: XviD, 720x272, ~1829 Kbps
    Аудио: AC-3, 2 ch, 192 Kbps

    Общее
    Полное имя : E: NNMЧудо-ребёнокProdigy 2017 HDRip.avi
    Формат : AVI
    Формат/Информация : Audio Video Interleave
    Размер файла : 1, 14 Гбайт
    Продолжительность : 1 ч. 20 м.
    Общий поток : 2030 Кбит/сек
    Программа кодирования : VirtualDubMod 1.5.10.3 |www.virtualdub-fr.org|| (build 2550/release)
    Библиотека кодирования : VirtualDubMod build 2550/release
    Видео
    Идентификатор : 0
    Формат : MPEG-4 Visual
    Профиль формата : Advanced Simple@L5
    Настройки формата : BVOP1/Custom Matrix
    Параметр BVOP формата : 1
    Параметр QPel формата : Нет
    Параметр GMC формата : Без точки перехода
    Параметр матрицы формата : Выборочная
    Идентификатор кодека : XVID
    Идентификатор кодека/Подсказка : XviD
    Продолжительность : 1 ч. 20 м.
    Битрейт : 1829 Кбит/сек
    Ширина : 720 пикселей
    Высота : 272 пикселя
    Соотношение сторон : 2, 647
    Частота кадров : 23, 976 (24000/1001) кадра/сек
    Цветовое пространство : YUV
    Субдискретизация насыщенности : 4: 2: 0
    Битовая глубина : 8 бит
    Тип развёртки : Прогрессивная
    Метод сжатия : С потерями
    Бит/(Пиксели*Кадры) : 0.389
    Размер потока : 1, 03 Гбайт (90%)
    Библиотека кодирования : XviD 1.2.1 (UTC 2008-12-04)
    Аудио
    Идентификатор : 1
    Формат : AC-3
    Формат/Информация : Audio Coding 3
    Идентификатор кодека : 2000
    Продолжительность : 1 ч. 20 м.
    Вид битрейта : Постоянный
    Битрейт : 192 Кбит/сек
    Каналы : 2 канала
    Расположение каналов : Front: L R
    Частота : 48, 0 КГц
    Частота кадров : 31, 250 кадров/сек (1536 SPF)
    Битовая глубина : 16 бит
    Метод сжатия : С потерями
    Размер потока : 111 Мбайт (9%)
    Выравнивание : Разделение по промежуткам
    Продолжительность промежутка : 42 мс. (1, 00 видеокадр)
    Время предзагрузки промежутка : 500 мс.
    ServiceKind/String : Complete Main

    Скриншоты для ознакомления



    Все одноименные релизы в Клубе Время раздачи: 24/7 (до появления первых 3-5 скачавших)


    Онлайн видео Чудо-ребёнок



    Чудо-ребёнок/Prodigy (2017) HDRip [MVO]
    Рейтинг →
     (голосов: 1, оценка 5/5, голосовать можно 1 раз )

    Другие торренты по теме:

  • Чудо-ребёнок / Prodigy (2017) BDRip [H.264 / 720p] [MVO]


    • Комментарии (0):

      Информация

      Информация

        Посетители, находящиеся в группе Гости, не могут оставлять комментарии в данной новости.

        ↓ Меню




        ↓ Опрос

        Вы добавили сайт в закладки?
        Да
        Нет


        Top 10 за месяц (Фильмы)