.
Авторизация | Регистрация
Хочешь лучшие торренты? Добавь свой email!
Добавить

Торрент скачать бесплатно

» » Они играют с огнём / Theyre Playing with Fire (1984) DVDRip [H.264] [AVO] торрент скачать бесплатно


    Они играют с огнём / Theyre Playing with Fire (1984) DVDRip [H.264] [AVO] торрент скачать бесплатно

    Опубликовал: Админ | Дата: 1-04-2018, 05:00 | .torrent скачали: 0

    Они играют с огнём / Theyre Playing with Fire (1984) DVDRip [H.264] [AVO]Производство: США/Hickmar Productions
    Жанр: Триллер, Криминал
    Режиссер: Говард Аведис
    Продюсер: Говард Аведис, Марлен Шмидт, Эрнест Кэй

    Актеры
    Сибил Даннинг, Эрик Браун, Эндрю Прайн, Пол Клеменс, Кейти Стивенс, Джин Бикнелл, Курт Айерс, Доминик Брашиа, Билл Конклин

    Описание

    Преподаватель решает обольстить студента, которого она наняла, как мастера на все руки для работы на ее яхте. Колеблющийся студент сдается своему сексуальному преподавателю, но их роман прерван ее коррумпированным мужем и убийцей в маске.

    Возраст: 18+ (зрителям, достигшим 18 лет. запрещено для детей)
    Рейтинг MPAA: R (лицам до 17 лет обязательно присутствие взрослого)
    Релиз от: Охрана (NNMCLUB)
    Продолжительность: 01: 36: 16
    Качество видео: DVDRip
    Перевод: Авторский (А. Дольский)
    Субтитры: Отсутствуют
    Видео: AVC/H.264, 720x400, ~1776 Kbps
    Аудио 1: Русский, AC3, 2 ch, 192 Kbps, 48.0 kHz
    Аудио 2: Английский, AC3, 2 ch, 192 Kbps, 48.0 kHz

    Общее
    Уникальный идентификатор : 214658801147852643607373665901833883939 (0xA17DC802FE934F568D9B3DFBCD781123)
    Полное имя : F: DownloadsОни играют с огнём. 1984. NNMCLUB.mkv
    Формат : Matroska
    Версия формата : Version 4/Version 2
    Размер файла : 1, 45 Гбайт
    Продолжительность : 1 ч. 36 м.
    Общий поток : 2162 Кбит/сек
    Дата кодирования : UTC 2018-03-31 10: 00: 09
    Программа кодирования : mkvmerge v7.9.0 (\'Birds\') 64bit
    Библиотека кодирования : libebml v1.3.1 + libmatroska v1.4.2
    Видео
    Идентификатор : 1
    Формат : AVC
    Формат/Информация : Advanced Video Codec
    Профиль формата : High@L4.1
    Настройки формата : CABAC/12 Ref Frames
    Параметр CABAC формата : Да
    Параметр RefFrames формата : 12 кадров
    Идентификатор кодека : V_MPEG4/ISO/AVC
    Продолжительность : 1 ч. 36 м.
    Битрейт : 1776 Кбит/сек
    Ширина : 720 пикселей
    Высота : 400 пикселей
    Соотношение сторон : 16: 9
    Режим частоты кадров : Постоянный
    Частота кадров : 23, 976 (24000/1001) кадра/сек
    Цветовое пространство : YUV
    Субдискретизация насыщенности : 4: 2: 0
    Битовая глубина : 8 бит
    Тип развёртки : Прогрессивная
    Бит/(Пиксели*Кадры) : 0.257
    Размер потока : 1, 19 Гбайт (82%)
    Заголовок : They\'re Playing with Fire
    Библиотека кодирования : x264 core 146 r2538 121396c
    Настройки программы : cabac=1/ref=12/deblock=1: -1: -1/analyse=0x3: 0x113/me=umh/subme=10/psy=1/psy_rd=1.00: 0.10/mixed_ref=1/me_range=32/chroma_me=1/trellis=2/8x8dct=1/cqm=0/deadzone=21, 11/fast_pskip=0/chroma_qp_offset=-3/threads=6/lookahead_threads=1/sliced_threads=0/nr=0/decimate=0/interlaced=0/bluray_compat=0/constrained_intra=0/bframes=7/b_pyramid=2/b_adapt=2/b_bias=0/direct=3/weightb=1/open_gop=0/weightp=2/keyint=250/keyint_min=25/scenecut=40/intra_refresh=0/rc_lookahead=60/rc=2pass/mbtree=1/bitrate=1776/ratetol=1.0/qcomp=0.60/qpmin=0/qpmax=69/qpstep=4/cplxblur=20.0/qblur=0.5/vbv_maxrate=14000/vbv_bufsize=14000/nal_hrd=none/filler=0/ip_ratio=1.40/aq=1: 1.00
    Язык : English
    Default : Да
    Forced : Нет
    Аудио #1
    Идентификатор : 2
    Формат : AC-3
    Формат/Информация : Audio Coding 3
    Идентификатор кодека : A_AC3
    Продолжительность : 1 ч. 36 м.
    Вид битрейта : Постоянный
    Битрейт : 192 Кбит/сек
    Каналы : 2 канала
    Расположение каналов : Front: L R
    Частота : 48, 0 КГц
    Частота кадров : 31, 250 кадров/сек (1536 SPF)
    Битовая глубина : 16 бит
    Метод сжатия : С потерями
    Размер потока : 132 Мбайт (9%)
    Заголовок : Авторский, А.Дольский
    Язык : Russian
    ServiceKind/String : Complete Main
    Default : Да
    Forced : Нет
    Аудио #2
    Идентификатор : 3
    Формат : AC-3
    Формат/Информация : Audio Coding 3
    Идентификатор кодека : A_AC3
    Продолжительность : 1 ч. 36 м.
    Вид битрейта : Постоянный
    Битрейт : 192 Кбит/сек
    Каналы : 2 канала
    Расположение каналов : Front: L R
    Частота : 48, 0 КГц
    Частота кадров : 31, 250 кадров/сек (1536 SPF)
    Битовая глубина : 16 бит
    Метод сжатия : С потерями
    Задержка видео : 15 мс.
    Размер потока : 132 Мбайт (9%)
    Заголовок : Оригинал
    Язык : English
    ServiceKind/String : Complete Main
    Default : Нет
    Forced : Нет

    Скриншоты для ознакомления




    Все одноименные релизы в Клубе
    Время раздачи: с 13: 00 до 01: 00 МСК, выходные круглосуточно (до появления первых 3-5 скачавших)


    Онлайн видео Они играют с огнём



    Они играют с огнём/Theyre Playing with Fire (1984) DVDRip [H.264] [AVO]
    Рейтинг →
     (голосов: 1, оценка 5/5, голосовать можно 1 раз )

    Другие торренты по теме:

  • Эрик Берн | Игры, в которые играют люди. Люди, которые играют в игры (сборник) (2017) [FB2]
  • Эрик Берн | Игры, в которые играют люди (2006) [MP3]
  • Ольга Маховская | Американские дети играют с удовольствием, французские – по правилам, а русские – до победы (2015) [FB2]
  • Игорь Зорин | Игры, в которые играют… Мастерство манипуляций (2016) [FB2]
  • Лора Флоранд | Француженки не играют по правилам (2016) [FB2]
  • Ден Бланк | IQ в футболе. Как играют умные футболисты (2016) [EPUB, FB2, MOBI]
  • Пол Хэлперн | Играют ли коты в кости Эйнштейн и Шрёдингер в поисках единой теории мироздания (2016) [PDF]
  • Растровый клипарт - Дети играют в пиратов [PSD]


    • Комментарии (0):

      Информация

      Информация

        Посетители, находящиеся в группе Гости, не могут оставлять комментарии в данной новости.

        ↓ Меню




        ↓ Опрос

        Вы добавили сайт в закладки?
        Да
        Нет


        Top 10 за месяц (Фильмы)