.
Авторизация | Регистрация
Хочешь лучшие торренты? Добавь свой email!
Добавить

Торрент скачать бесплатно

» » Мятеж на Баунти / Mutiny on the Bounty (1962) BDRip [H.264 / 720p] торрент скачать бесплатно


    Мятеж на Баунти / Mutiny on the Bounty (1962) BDRip [H.264 / 720p] торрент скачать бесплатно

    Опубликовал: Админ | Дата: 1-04-2018, 05:00 | .torrent скачали: 0

    Мятеж на Баунти / Mutiny on the Bounty (1962) BDRip [H.264 / 720p]Производство: США. Arcola Pictures, Metro-Goldwyn-Mayer
    Жанр: Драма, Приключения
    Режиссер: Льюис Майлстоун, Кэрол Рид

    Актеры
    Марлон Брандо, Тревор Ховард, Ричард Харрис, Хью Гриффит, Ричард Хейдн, Тарита, Перси Херберт, Дункан Ламонт, Гордон Джексон, Чипс Рафферти, Анна Ли

    Описание

    Сюжет основан на романе Чарльза Нордхоффа и Джеймса Нормана Холла.
    Британское Королевское судно Баунти под командованием капитана Уильяма Блая (Тревор Ховард) производит доставку саженцев хлебного дерева с Таити на Ямайку. Капитан всеми силами старается выполнить приказ и доставить груз в кратчайшие сроки, поэтому жестоко наказывает всех членов команды за малейшие провинности. Бывший друг Блая, помощник Флетчер Кристиан (Марлон Брандо) и часть экипажа планируют мятеж.

    Возраст: 12+ (зрителям, достигшим 12 лет)
    Продолжительность: 03: 05: 27
    Качество видео: BDRip
    Перевод: Многоголосый закадровый
    Субтитры: Русские, английские
    Видео: AVC/H.264, 1280x456, ~5000 kbps
    Аудио 1: AC3, 48 KHz, 2 ch, 192 kbps | Русский – MVO (НТВ)
    Аудио 2: AC3, 48 KHz, 6 ch, 640 kbps | Английский - Оригинал

    Общее
    Уникальный идентификатор : 243673544094012885361370037942847301497 (0xB751D149289CC70EA30C98B0CFF86779)
    Полное имя : H: НАЧАЛО XVI ВЕКА – ХХI ВЕКМятеж на БаунтиМятеж на Баунти. 1962 BDRip 720p.mkv
    Формат : Matroska
    Версия формата : Version 4/Version 2
    Размер файла : 7, 56 Гбайт
    Продолжительность : 3 ч. 5 м.
    Общий поток : 5834 Кбит/сек
    Название фильма : Release for Topmost
    Дата кодирования : UTC 2018-03-30 04: 03: 05
    Программа кодирования : mkvmerge v6.2.0 (\'Promised Land\') built on Apr 28 2013 12: 22: 01
    Библиотека кодирования : libebml v1.3.0 + libmatroska v1.4.0
    Attachment : Yes
    Видео
    Идентификатор : 1
    Формат : AVC
    Формат/Информация : Advanced Video Codec
    Профиль формата : High@L4.1
    Параметр CABAC формата : Да
    Параметр ReFrames формата : 10 кадров
    Идентификатор кодека : V_MPEG4/ISO/AVC
    Продолжительность : 3 ч. 5 м.
    Битрейт : 5000 Кбит/сек
    Ширина : 1280 пикселей
    Высота : 456 пикселей
    Соотношение сторон : 2, 807
    Режим частоты кадров : Постоянный
    Частота кадров : 23, 976 кадра/сек
    Цветовое пространство : YUV
    Субдискретизация насыщенности : 4: 2: 0
    Битовая глубина : 8 бит
    Тип развёртки : Прогрессивная
    Бит/(Пиксели*Кадры) : 0.357
    Размер потока : 6, 33 Гбайт (84%)
    Заголовок : Мятеж на Баунти. 1962 (Release for Topmost)
    Библиотека кодирования : x264 core 146 r2538 121396c
    Настройки программы : cabac=1/ref=10/deblock=1: -3: -3/analyse=0x3: 0x113/me=umh/subme=11/psy=1/psy_rd=1.00: 0.15/mixed_ref=1/me_range=32/chroma_me=1/trellis=2/8x8dct=1/cqm=0/deadzone=21, 11/fast_pskip=0/chroma_qp_offset=-3/threads=12/lookahead_threads=2/sliced_threads=0/nr=0/decimate=0/interlaced=0/bluray_compat=0/constrained_intra=0/bframes=8/b_pyramid=2/b_adapt=2/b_bias=0/direct=3/weightb=1/open_gop=0/weightp=2/keyint=240/keyint_min=23/scenecut=40/intra_refresh=0/rc_lookahead=40/rc=2pass/mbtree=1/bitrate=5000/ratetol=1.0/qcomp=0.60/qpmin=0/qpmax=69/qpstep=4/cplxblur=20.0/qblur=0.5/ip_ratio=1.40/aq=1: 0.90
    Язык : English
    Default : Да
    Forced : Нет
    Аудио #1
    Идентификатор : 2
    Формат : AC-3
    Формат/Информация : Audio Coding 3
    Расширение режима : CM (complete main)
    Параметр Endianness формата : Big
    Идентификатор кодека : A_AC3
    Продолжительность : 3 ч. 5 м.
    Вид битрейта : Постоянный
    Битрейт : 192 Кбит/сек
    Каналы : 2 канала
    Расположение каналов : Front: L R
    Частота : 48, 0 КГц
    Битовая глубина : 16 бит
    Метод сжатия : С потерями
    Размер потока : 255 Мбайт (3%)
    Заголовок : AC3, 2 ch, 192 kbps - Профессиональный многоголосый (НТВ+)
    Язык : Russian
    Default : Да
    Forced : Нет
    Аудио #2
    Идентификатор : 3
    Формат : AC-3
    Формат/Информация : Audio Coding 3
    Расширение режима : CM (complete main)
    Параметр Endianness формата : Big
    Идентификатор кодека : A_AC3
    Продолжительность : 3 ч. 5 м.
    Вид битрейта : Постоянный
    Битрейт : 640 Кбит/сек
    Каналы : 6 каналов
    Расположение каналов : Front: L C R, Side: L R, LFE
    Частота : 48, 0 КГц
    Битовая глубина : 16 бит
    Метод сжатия : С потерями
    Размер потока : 849 Мбайт (11%)
    Заголовок : AC3, 6 ch, 640 kbps - Оригинал
    Язык : English
    Default : Нет
    Forced : Нет
    Текст #1
    Идентификатор : 4
    Формат : UTF-8
    Идентификатор кодека : S_TEXT/UTF8
    Идентификатор кодека/Информация : UTF-8 Plain Text
    Язык : Russian
    Default : Да
    Forced : Нет
    Текст #2
    Идентификатор : 5
    Формат : UTF-8
    Идентификатор кодека : S_TEXT/UTF8
    Идентификатор кодека/Информация : UTF-8 Plain Text
    Язык : English
    Default : Нет
    Forced : Нет

    Скриншоты для ознакомления




    Все одноименные релизы в Клубе
    Время раздачи: 24/7 до 5 скачавших (до появления первых 3-5 скачавших)


    Онлайн видео Мятеж на Баунти



    Мятеж на Баунти/Mutiny on the Bounty (1962) BDRip [H.264/720p]
    Рейтинг →
     (голосов: 1, оценка 5/5, голосовать можно 1 раз )

    Другие торренты по теме:

  • Балтийский мятеж. Саблин против Брежнева (2008) DVB
  • Discovery: Мятеж: / Mutiny: Survival On The Oceans (2017) HDTVRip [H.264 / 720p-LQ] (эпизод 1 из )
  • Н. Корнатовский (ред.) | Кронштадтский мятеж: сборник статей, материалов и документов (1931) [PDF]
  • В. В. Хрулев | Чехословацкий мятеж и его ликвидация (1940) [PDF]
  • Мятеж в преисподней (2009) DVB [H.264 / 576i]


    • Комментарии (0):

      Информация

      Информация

        Посетители, находящиеся в группе Гости, не могут оставлять комментарии в данной новости.

        ↓ Меню




        ↓ Опрос

        Вы добавили сайт в закладки?
        Да
        Нет


        Top 10 за месяц (Фильмы)