.
Авторизация | Регистрация
Хочешь лучшие торренты? Добавь свой email!
Добавить

Торрент скачать бесплатно

» » Чудо-ребёнок / Prodigy (2017) BDRip [H.264 / 720p] [MVO] торрент скачать бесплатно


    Чудо-ребёнок / Prodigy (2017) BDRip [H.264 / 720p] [MVO] торрент скачать бесплатно

    Опубликовал: Админ | Дата: 1-04-2018, 05:00 | .torrent скачали: 0

    Чудо-ребёнок / Prodigy (2017) BDRip [H.264 / 720p] [MVO]Производство: США/High Noon California
    Жанр: Фантастика, триллер, драма
    Режиссер: Алекс Хофи, Брайан Видал

    Актеры
    Ричард Нил, Саванна Лилз, Джолин Андерсен, Эмилио Паламе, Дэвид Лински, Харви К. Джонсон, Арал Гриббл, Эйвери Баркдулл, Тревор Кастильо, Пенелопа Фигероа

    Описание

    Психолог вступает в опасную схватку умов с маленьким гением, но он не знает, что у девочки есть сверхъестественные способности, что ее жизнь висит на волоске, и только он может спасти ее.

    Дата мировой премьеры: 4 марта 2017
    Продолжительность: 01: 20: 29
    Качество видео: BDRip
    Перевод: Многоголосый закадровый, любительский (HDrezka Studio)
    Субтитры: Отсутствуют
    Видео: H.264/AVC, 1280x486, ~4776 Kbps
    Аудио #1: AC-3, 2 ch, 192 Kbps | Русский
    Аудио #2: DTS, 6 ch, 1 510 Kbps | Английский

    Общее
    Уникальный идентификатор : 233241175475823459894305467776961682484 (0xAF789DCD2177DD9FA111B48AA7391C34)
    Полное имя : E: NNMЧудо-ребёнокProdigy 2017 720p BDRip.mkv
    Формат : Matroska
    Версия формата : Version 2
    Размер файла : 3, 72 Гбайт
    Продолжительность : 1 ч. 20 м.
    Общий поток : 6610 Кбит/сек
    Дата кодирования : UTC 2018-03-31 07: 11: 54
    Программа кодирования : mkvmerge v7.8.0 (\'River Man\') 32bit built on Apr 3 2015 12: 11: 22
    Библиотека кодирования : libebml v1.3.1 + libmatroska v1.4.2
    Видео
    Идентификатор : 1
    Формат : AVC
    Формат/Информация : Advanced Video Codec
    Профиль формата : High@L4.1
    Настройки формата : CABAC/9 Ref Frames
    Параметр CABAC формата : Да
    Параметр RefFrames формата : 9 кадров
    Идентификатор кодека : V_MPEG4/ISO/AVC
    Продолжительность : 1 ч. 20 м.
    Битрейт : 4777 Кбит/сек
    Ширина : 1280 пикселей
    Высота : 486 пикселей
    Соотношение сторон : 2, 634
    Режим частоты кадров : Постоянный
    Частота кадров : 23, 976 (24000/1001) кадра/сек
    Цветовое пространство : YUV
    Субдискретизация насыщенности : 4: 2: 0
    Битовая глубина : 8 бит
    Тип развёртки : Прогрессивная
    Бит/(Пиксели*Кадры) : 0.320
    Размер потока : 2, 69 Гбайт (72%)
    Библиотека кодирования : x264 core 149 r2771+45 509cceb 7mod 8-bit@all X86_64
    Настройки программы : cabac=1/ref=9/deblock=1: -3: -3/analyse=0x3: 0x113/me=umh/subme=10/psy=1/fade_compensate=0.00/psy_rd=0.90: 0.10/mixed_ref=1/me_range=32/chroma_me=1/trellis=2/8x8dct=1/cqm=0/deadzone=21, 11/fast_pskip=0/chroma_qp_offset=-2/threads=12/lookahead_threads=2/sliced_threads=0/nr=0/decimate=1/interlaced=0/bluray_compat=0/constrained_intra=0/fgo=0/bframes=8/b_pyramid=2/b_adapt=2/b_bias=0/direct=3/weightb=1/open_gop=0/weightp=2/keyint=250/keyint_min=23/scenecut=40/intra_refresh=0/rc_lookahead=40/rc=crf/mbtree=0/crf=18.0000/qcomp=0.70/qpmin=0: 0: 0/qpmax=69: 69: 69/qpstep=4/vbv_maxrate=30000/vbv_bufsize=30000/crf_max=0.0/nal_hrd=none/filler=0/ip_ratio=1.40/pb_ratio=1.30/aq=3: 1.00/aq-sensitivity=10.00/aq-factor=1.00: 1.00: 1.00/aq2=0/aq3=2: 0.50: 0.50: 0.50: 0.50: 0.50: 0.50: 0.50: 0.50/aq3-sensitivity=10.00/aq3-factor=1.00: 1.00: 1.00: 1.00: 1.00: 1.00/aq3-boundary=192: 64: 24
    Язык : English
    Default : Да
    Forced : Нет
    Цветовой диапазон : Limited
    Коэффициенты матрицы : BT.709
    Аудио #1
    Идентификатор : 2
    Формат : AC-3
    Формат/Информация : Audio Coding 3
    Идентификатор кодека : A_AC3
    Продолжительность : 1 ч. 20 м.
    Вид битрейта : Постоянный
    Битрейт : 192 Кбит/сек
    Каналы : 2 канала
    Расположение каналов : Front: L R
    Частота : 48, 0 КГц
    Частота кадров : 31, 250 кадров/сек (1536 SPF)
    Битовая глубина : 16 бит
    Метод сжатия : С потерями
    Размер потока : 111 Мбайт (3%)
    Заголовок : HDrezka
    Язык : Russian
    ServiceKind/String : Complete Main
    Default : Да
    Forced : Да
    Аудио #2
    Идентификатор : 3
    Формат : DTS
    Формат/Информация : Digital Theater Systems
    Идентификатор кодека : A_DTS
    Продолжительность : 1 ч. 20 м.
    Вид битрейта : Постоянный
    Битрейт : 1509 Кбит/сек
    Каналы : 6 каналов
    Расположение каналов : Front: L C R, Side: L R, LFE
    Частота : 48, 0 КГц
    Частота кадров : 93, 750 кадра/сек (512 SPF)
    Битовая глубина : 24 бит
    Метод сжатия : С потерями
    Размер потока : 869 Мбайт (23%)
    Язык : English
    Default : Нет
    Forced : Нет

    Скриншоты для ознакомления



    Все одноименные релизы в Клубе Время раздачи: 24/7 (до появления первых 3-5 скачавших)


    Онлайн видео Чудо-ребёнок



    Чудо-ребёнок/Prodigy (2017) BDRip [H.264/720p] [MVO]
    Рейтинг →
     (голосов: 1, оценка 4/5, голосовать можно 1 раз )

    Другие торренты по теме:

  • Чудо-ребёнок / Prodigy (2017) HDRip [MVO]


    • Комментарии (0):

      Информация

      Информация

        Посетители, находящиеся в группе Гости, не могут оставлять комментарии в данной новости.

        ↓ Меню




        ↓ Опрос

        Вы добавили сайт в закладки?
        Да
        Нет


        Top 10 за месяц (Фильмы)