.
Авторизация | Регистрация
Хочешь лучшие торренты? Добавь свой email!
Добавить

Торрент скачать бесплатно

» » Унесенные ветром / Gone With The Wind (1939) BDRip [H.265 / 1080p-LQ] [10-bit] торрент скачать бесплатно


    Унесенные ветром / Gone With The Wind (1939) BDRip [H.265 / 1080p-LQ] [10-bit] торрент скачать бесплатно

    Опубликовал: Админ | Дата: 1-04-2018, 05:00 | .torrent скачали: 0

    Унесенные ветром / Gone With The Wind (1939) BDRip [H.265 / 1080p-LQ] [10-bit]Производство: США
    Жанр: Мелодрама, Драма, Военный, История
    Режиссер: Виктор Флеминг, Джордж Кьюкор, Сэм Вуд

    Актеры
    Вивьен Ли, Кларк Гейбл, Лесли Ховард, Оливия Де Хэвиллэнд, Оскар Полк, Хэтти МакДэниэл, Эверетт Браун, Томас Митчел, Барбара О`Нил, Эвелин Кийес, Энн Рутерфорд, Джордж Ривз, Фред Крэйн, Баттерфлай МакКуин, Виктор Джори, Ховард С. Хикман, Алисия Ретт, Рэнд Брукс, Кэрролл Най, Лаура Хоуп Крюс, Эдди Рочестер Андерсон

    Описание

    Незабываемый любовный роман времен американской Гражданской войны. Бессмертным героям этой эпической саги Скарлетт, Ретт, Эшли, Мелани, Матушка и Присси — удалось покорить не одно поколение кинозрителей.

    Возраст: 12+ (зрителям, достигшим 12 лет)
    Рейтинг MPAA: G (нет возрастных ограничений)
    Релиз от: ХиМиК
    Продолжительность: 03: 53: 14
    Качество видео: BDRip
    Перевод: Дублированный, многоголосый закадровый, авторский
    Субтитры: Русские, английские
    Видео: HEVC/H.265, 1480x1080 (1.370), ~7725 Kbps
    Аудио 1: AC3, 2 ch, 192 Kbps (Дубляж Союзмультфильм 1990)
    Аудио 2: AC3, 6 ch, 384 Kbps (Дубляж Мост-Видео 2002)
    Аудио 3: AC3, 2 ch, 192 Kbps (AVO Горчаков)
    Аудио 4: AC3, 6 ch, 448 Kbps (AVO Живов)
    Аудио 5: AC3, 2 ch, 192 Kbps (AVO Михалёв)
    Аудио 6: AC3, 6 ch, 448 Kbps (MVO Украинский)
    Аудио 7: AC3, 6 ch, 640 Kbps (Оригинал)

    Общее
    Уникальный идентификатор : 266416850347763846020626292651312205158 (0xC86E04DBB4179A2ED6BB593DBA76CD66)
    Полное имя : H: HEVC 210 BITGone With The Wind_1939_BDRip_1080p_HEVC_10bit.mkv
    Формат : Matroska
    Версия формата : Version 4/Version 2
    Размер файла : 16, 7 Гбайт
    Продолжительность : 3 ч. 53 м.
    Общий поток : 10, 2 Мбит/сек
    Дата кодирования : UTC 2018-03-28 16: 10: 26
    Программа кодирования : mkvmerge v21.0.0 (\'Tardigrades Will Inherit The Earth\') 64-bit
    Библиотека кодирования : libebml v1.3.5 + libmatroska v1.4.8
    Обложка : Yes
    Attachments : cover.jpg
    Видео
    Идентификатор : 1
    Формат : HEVC
    Формат/Информация : High Efficiency Video Coding
    Профиль формата : Main10@L4.1@High
    Идентификатор кодека : V_MPEGH/ISO/HEVC
    Продолжительность : 3 ч. 53 м.
    Битрейт : 7725 Кбит/сек
    Ширина : 1480 пикселей
    Высота : 1080 пикселей
    Соотношение сторон : 1, 370
    Режим частоты кадров : Постоянный
    Частота кадров : 23, 976 (24000/1001) кадра/сек
    Цветовое пространство : YUV
    Субдискретизация насыщенности : 4: 2: 0
    Битовая глубина : 10 бит
    Бит/(Пиксели*Кадры) : 0.202
    Размер потока : 12, 6 Гбайт (76%)
    Библиотека кодирования : x265 2.7+17-2e370d98c806: WindowsGCC 8.0.164 bit 10bit
    Настройки программы : cpuid=1173503/frame-threads=4/numa-pools=16/wpp/no-pmode/no-pme/no-psnr/no-ssim/log-level=2/input-csp=1/input-res=1480x1080/interlace=0/total-frames=335527/level-idc=41/high-tier=1/uhd-bd=0/ref=5/no-allow-non-conformance/no-repeat-t_heads/annexb/no-aud/no-hrd/info/hash=0/no-temporal-layers/open-gop/min-keyint=23/keyint=240/gop-lookahead=0/bframes=12/b-adapt=2/b-pyramid/bframe-bias=0/rc-lookahead=60/lookahead-slices=4/scenecut=40/radl=0/no-intra-refresh/ctu=64/min-cu-size=8/rect/amp/max-tu-size=32/tu-inter-depth=4/tu-intra-depth=4/limit-tu=1/rdoq-level=1/dynamic-rd=0.00/no-ssim-rd/signhide/no-tskip/nr-intra=0/nr-inter=0/no-constrained-intra/no-strong-intra-smoothing/max-merge=3/limit-refs=2/limit-modes/me=3/subme=7/merange=92/temporal-mvp/weightp/weightb/no-analyze-src-pics/deblock=-3: -3/no-sao/no-sao-non-deblock/rd=6/no-early-skip/rskip/no-fast-intra/no-tskip-fast/no-cu-lossless/b-intra/no-splitrd-skip/rdpenalty=0/psy-rd=2.00/psy-rdoq=1.00/no-rd-refine/no-lossless/cbqpoffs=-2/crqpoffs=-2/rc=crf/crf=18.0/qcomp=0.60/qpstep=4/stats-write=0/stats-read=0/vbv-maxrate=50000/vbv-bufsize=50000/vbv-init=0.9/crf-max=0.0/crf-min=0.0/ipratio=1.40/pbratio=1.30/aq-mode=1/aq-strength=1.00/cutree/zone-count=0/no-strict-cbr/qg-size=32/no-rc-grain/qpmax=69/qpmin=0/no-const-vbv/sar=1/overscan=0/videoformat=5/range=0/colorprim=2/transfer=2/colormatrix=1/chromaloc=0/display-window=0/max-cll=0, 0/min-luma=0/max-luma=1023/log2-max-poc-lsb=8/vui-timing-info/vui-hrd-info/slices=1/no-opt-qp-pps/no-opt-ref-list-length-pps/no-multi-pass-opt-rps/scenecut-bias=0.05/no-opt-cu-delta-qp/no-aq-motion/no-hdr/no-hdr-opt/no-dhdr10-opt/no-idr-recovery-sei/analysis-reuse-level=5/scale-factor=0/refine-intra=0/refine-inter=0/refine-mv=0/no-limit-sao/ctu-info=0/no-lowpass-dct/refine-mv-type=0/copy-pic=1/max-ausize-factor=1.0/no-dynamic-refine
    Default : Да
    Forced : Нет
    Цветовой диапазон : Limited
    Коэффициенты матрицы : BT.709
    Аудио #1
    Идентификатор : 2
    Формат : AC-3
    Формат/Информация : Audio Coding 3
    Идентификатор кодека : A_AC3
    Продолжительность : 3 ч. 53 м.
    Вид битрейта : Постоянный
    Битрейт : 192 Кбит/сек
    Каналы : 2 канала
    Расположение каналов : Front: L R
    Частота : 48, 0 КГц
    Частота кадров : 31, 250 кадров/сек (1536 SPF)
    Битовая глубина : 16 бит
    Метод сжатия : С потерями
    Размер потока : 320 Мбайт (2%)
    Заголовок : DUB Союзмультфильм 1990
    Язык : Russian
    ServiceKind : Complete Main
    Default : Да
    Forced : Нет
    Аудио #2
    Идентификатор : 3
    Формат : AC-3
    Формат/Информация : Audio Coding 3
    Идентификатор кодека : A_AC3
    Продолжительность : 3 ч. 53 м.
    Вид битрейта : Постоянный
    Битрейт : 384 Кбит/сек
    Каналы : 6 каналов
    Расположение каналов : Front: L C R, Side: L R, LFE
    Частота : 48, 0 КГц
    Частота кадров : 31, 250 кадров/сек (1536 SPF)
    Битовая глубина : 16 бит
    Метод сжатия : С потерями
    Размер потока : 641 Мбайт (4%)
    Заголовок : DUB Мост-Видео 2002
    Язык : Russian
    ServiceKind : Complete Main
    Default : Нет
    Forced : Нет
    Аудио #3
    Идентификатор : 4
    Формат : AC-3
    Формат/Информация : Audio Coding 3
    Идентификатор кодека : A_AC3
    Продолжительность : 3 ч. 53 м.
    Вид битрейта : Постоянный
    Битрейт : 192 Кбит/сек
    Каналы : 2 канала
    Расположение каналов : Front: L R
    Частота : 48, 0 КГц
    Частота кадров : 31, 250 кадров/сек (1536 SPF)
    Битовая глубина : 16 бит
    Метод сжатия : С потерями
    Размер потока : 320 Мбайт (2%)
    Заголовок : AVO Горчаков
    Язык : Russian
    ServiceKind : Complete Main
    Default : Нет
    Forced : Нет
    Аудио #4
    Идентификатор : 5
    Формат : AC-3
    Формат/Информация : Audio Coding 3
    Идентификатор кодека : A_AC3
    Продолжительность : 3 ч. 53 м.
    Вид битрейта : Постоянный
    Битрейт : 448 Кбит/сек
    Каналы : 6 каналов
    Расположение каналов : Front: L C R, Side: L R, LFE
    Частота : 48, 0 КГц
    Частота кадров : 31, 250 кадров/сек (1536 SPF)
    Битовая глубина : 16 бит
    Метод сжатия : С потерями
    Размер потока : 747 Мбайт (4%)
    Заголовок : AVO Живов
    Язык : Russian
    ServiceKind : Complete Main
    Default : Нет
    Forced : Нет
    Аудио #5
    Идентификатор : 6
    Формат : AC-3
    Формат/Информация : Audio Coding 3
    Идентификатор кодека : A_AC3
    Продолжительность : 3 ч. 53 м.
    Вид битрейта : Постоянный
    Битрейт : 192 Кбит/сек
    Каналы : 2 канала
    Расположение каналов : Front: L R
    Частота : 48, 0 КГц
    Частота кадров : 31, 250 кадров/сек (1536 SPF)
    Битовая глубина : 16 бит
    Метод сжатия : С потерями
    Размер потока : 320 Мбайт (2%)
    Заголовок : AVO Михалёв
    Язык : Russian
    ServiceKind : Complete Main
    Default : Нет
    Forced : Нет
    Аудио #6
    Идентификатор : 7
    Формат : AC-3
    Формат/Информация : Audio Coding 3
    Идентификатор кодека : A_AC3
    Продолжительность : 3 ч. 53 м.
    Вид битрейта : Постоянный
    Битрейт : 448 Кбит/сек
    Каналы : 6 каналов
    Расположение каналов : Front: L C R, Side: L R, LFE
    Частота : 48, 0 КГц
    Частота кадров : 31, 250 кадров/сек (1536 SPF)
    Битовая глубина : 16 бит
    Метод сжатия : С потерями
    Размер потока : 747 Мбайт (4%)
    Заголовок : MVO Украина
    Язык : Ukrainian
    ServiceKind : Complete Main
    Default : Нет
    Forced : Нет
    Аудио #7
    Идентификатор : 8
    Формат : AC-3
    Формат/Информация : Audio Coding 3
    Идентификатор кодека : A_AC3
    Продолжительность : 3 ч. 53 м.
    Вид битрейта : Постоянный
    Битрейт : 640 Кбит/сек
    Каналы : 6 каналов
    Расположение каналов : Front: L C R, Side: L R, LFE
    Частота : 48, 0 КГц
    Частота кадров : 31, 250 кадров/сек (1536 SPF)
    Битовая глубина : 16 бит
    Метод сжатия : С потерями
    Размер потока : 1, 04 Гбайт (6%)
    Язык : English
    ServiceKind : Complete Main
    Default : Нет
    Forced : Нет
    Текст #1
    Идентификатор : 9
    Формат : UTF-8
    Идентификатор кодека : S_TEXT/UTF8
    Идентификатор кодека/Информация : UTF-8 Plain Text
    Продолжительность : 3 ч. 53 м.
    Битрейт : 87 бит/сек
    ElementCount : 3044
    Размер потока : 149 Кбайт (0%)
    Язык : Russian
    Default : Да
    Forced : Нет
    Текст #2
    Идентификатор : 10
    Формат : UTF-8
    Идентификатор кодека : S_TEXT/UTF8
    Идентификатор кодека/Информация : UTF-8 Plain Text
    Продолжительность : 3 ч. 46 м.
    Битрейт : 74 бит/сек
    ElementCount : 3123
    Размер потока : 123 Кбайт (0%)
    Язык : English
    Default : Нет
    Forced : Нет
    Доп. информация : - H.265/HEVC (High Efficiency Video Coding) - это новый стандарт кодирования видео.
    - Стандарт H.265/HEVC является логическим продолжением стандарта H.264/AVC (Advanced Video Coding), и характеризуется более эффективными алгоритмами сжатия, а также поддержкой высокого разрешения вплоть до 8K UHD (8192x4320). Первая версия стандарта H.265 была опубликована в начале 2013 года.
    - Рипы в фомате HEVC поддерживается не всеми аппаратными проигрывателями.
    - Для корректного воспроизведения может потребоваться обновление ПО.
    - Владельцам несовместимого железа просьба не беспокоить, есть альтернативные релизы.

    Скриншоты для ознакомления



    Все одноименные релизы в Клубе
    Время раздачи: с 8: 00 до 22: 00 (до появления первых 3-5 скачавших)


    Онлайн видео Унесенные ветром



    Унесенные ветром/Gone With The Wind (1939) BDRip [H.265/1080p-LQ] [10-bit]
    Рейтинг →
     (голосов: 1, оценка 3/5, голосовать можно 1 раз )

    Другие торренты по теме:

  • Унесенные ветром / Gone with the Wind (1939) BDRip [720p] ATV
  • Унесенные ветром / Gone with the Wind (1939) BDRip [1080p] ATV
  • Унесенные ветром / Gone with the Wind (1939) BDRip [H.264] скачать через торрент бесплатно
  • Унесенные ветром / Gone with the Wind (1939) BDRip [H.264 / 1080p]
  • Унесенные ветром / Gone with the Wind (1939) HDRip
  • Унесенные ветром / Gone with the Wind (1939) BDRip [H.264 / 720p-LQ]


    • Комментарии (0):

      Информация

      Информация

        Посетители, находящиеся в группе Гости, не могут оставлять комментарии в данной новости.

        ↓ Меню




        ↓ Опрос

        Вы добавили сайт в закладки?
        Да
        Нет


        Top 10 за месяц (Фильмы)