.
Авторизация | Регистрация
Хочешь лучшие торренты? Добавь свой email!
Добавить

Торрент скачать бесплатно

  • support: webmaster@btracker.org
» » Загнанный / Battle of the Drones (2017) WEB-DLRip [MVO] [AD] торрент скачать бесплатно


    Загнанный / Battle of the Drones (2017) WEB-DLRip [MVO] [AD] торрент скачать бесплатно

    Опубликовал: Админ | Дата: 4-03-2018, 05:00 | .torrent скачали: 45

    Загнанный / Battle of the Drones (2017) WEB-DLRip [MVO] [AD]Производство: США/Film Tiger, Odyssey Media, OutPost Media
    Жанр: Боевик
    Режиссер: Мишель Гулд

    Актеры
    Доминик Суэйн, Наташа Мальте, Майкл Паре, Джейсон Эрлз, Луис Мэндилор, Олег Тактаров, Ричард Рейд, Дэн Сауфуорф, Стив Паунд, Джо Марр

    Описание

    Смесь Неудержимых и Команды А превращается в безудержный боевик про группу опытных наёмников, которых предаёт правительство США. Оказавшись в засаде, они вынуждены отбиваться от целой армии людей-киборгов...

    Дата мировой премьеры: 2017 год
    Продолжительность: 01: 33: 23
    Качество видео: WEB-DLRip
    Перевод: Многоголосый закадровый, любительский (MUZOBOZ)
    Субтитры: Отсутствуют
    Реклама: Присутствуют вставки текстовой рекламы!
    Видео: MPEG4, XviD, 720x304, 1600 Kbps
    Аудио: AC-3, 48.0 KHz, 2 ch, 384 Kbps

    Общее
    Полное имя : E: NNMЗагнанныйBattle of the Drones 2017 WEB-DLRip.avi
    Формат : AVI
    Формат/Информация : Audio Video Interleave
    Профиль формата : OpenDML
    Размер файла : 1, 30 Гбайт
    Продолжительность : 1 ч. 33 м.
    Общий поток : 1996 Кбит/сек
    Видео
    Идентификатор : 0
    Формат : MPEG-4 Visual
    Профиль формата : Advanced Simple@L5
    Настройки формата : BVOP2
    Параметр BVOP формата : 2
    Параметр QPel формата : Нет
    Параметр GMC формата : Без точки перехода
    Параметр матрицы формата : Default (MPEG)
    Идентификатор кодека : XVID
    Идентификатор кодека/Подсказка : XviD
    Продолжительность : 1 ч. 33 м.
    Битрейт : 1600 Кбит/сек
    Ширина : 720 пикселей
    Высота : 304 пикселя
    Соотношение сторон : 2, 35: 1
    Частота кадров : 23, 976 (24000/1001) кадра/сек
    Цветовое пространство : YUV
    Субдискретизация насыщенности : 4: 2: 0
    Битовая глубина : 8 бит
    Тип развёртки : Прогрессивная
    Метод сжатия : С потерями
    Бит/(Пиксели*Кадры) : 0.305
    Размер потока : 1, 04 Гбайт (80%)
    Библиотека кодирования : XviD 1.2.1 (UTC 2008-12-04)
    Аудио
    Идентификатор : 1
    Формат : AC-3
    Формат/Информация : Audio Coding 3
    Идентификатор кодека : 2000
    Продолжительность : 1 ч. 33 м.
    Вид битрейта : Постоянный
    Битрейт : 384 Кбит/сек
    Каналы : 2 канала
    Расположение каналов : Front: L R
    Частота : 48, 0 КГц
    Частота кадров : 31, 250 кадров/сек (1536 SPF)
    Битовая глубина : 16 бит
    Метод сжатия : С потерями
    Размер потока : 256 Мбайт (19%)
    Выравнивание : Соединение по промежуткам
    Продолжительность промежутка : 32 мс. (0, 77 видеокадр)
    ServiceKind/String : Complete Main

    Скриншоты для ознакомления



    Все одноименные релизы в Клубе Время раздачи: Круглосуточно до 10 скачавших


    Онлайн видео Загнанный



    Загнанный/Battle of the Drones (2017) WEB-DLRip [MVO] [AD]
    Рейтинг →
     (голосов: 1, оценка 5/5, голосовать можно 1 раз )

    Другие торренты по теме:

  • Загнанный / Battle of the Drones (2017) WEB-DL [H.264 / 1080p-LQ] [MVO]
  • Загнанный / Battle of the Drones (2017) WEB-DLRip [MVO]


    • Комментарии (0):

      Информация

      Информация

        Посетители, находящиеся в группе Гости, не могут оставлять комментарии в данной новости.

        ↓ Меню




        ↓ Опрос

        Вы добавили сайт в закладки?
        Да
        Нет


        Top 10 за месяц (Фильмы)