.
Авторизация | Регистрация
Хочешь лучшие торренты? Добавь свой email!
Добавить

Торрент скачать бесплатно

  • support: webmaster@btracker.org
» » Неистовый, яростный, бешеный... (2011) TVRip (серии 1-4 из 4) торрент скачать бесплатно


    Неистовый, яростный, бешеный... (2011) TVRip (серии 1-4 из 4) торрент скачать бесплатно

    Опубликовал: Админ | Дата: 4-02-2018, 05:00 | .torrent скачали: 128

    Неистовый, яростный, бешеный... (2011) TVRip (серии 1-4 из 4)Производство: Россия/ООО Шар по заказу Правительства Москвы
    Жанр: драма, история, военный
    Режиссер: Михаил Мамедов

    Актеры
    Кирилл Запорожский, Дарья Лузина, Сергей Ларин, Александр Лучинин, Ксения Иванова, Михаил Калиничев, Ирина Савицкова, Андрей Арзяев, Юрий Шлыков, Сергей Тезов и др.

    Описание

    Во время Второй мировой войны скрытые соперники, СССР и Америка, вынуждены были объединиться и создать коалицию для борьбы с фашистскими захватчиками. В результате русские и американцы провели не одну блестящую совместную операцию, в числе которых была и Frantic, что в переводе с английского означает неистовый, яростный. Речь в картине пойдет о молодых людях, участниках тех военных событий, которым, не смотря ни на что, свойственны душевные порывы, искренняя дружба и безудержная любовь.

    Релиз от: Алехаndr
    Продолжительность: ~00: 43: 00 серия
    Качество видео: TVRip
    Видео: Xvid, 640x360 (16: 9), ~880 Kbps
    Аудио: MP3, 2 ch, 128 Kbps

    Общее
    Полное имя : D: Неистовый, яростный, бешеный... (2011).by.АлехаndrСерия 1.by.Алехаndr.avi
    Формат : AVI
    Формат/Информация : Audio Video Interleave
    Размер файла : 319 Мбайт
    Продолжительность : 43 м. 52 с.
    Общий поток : 1017 Кбит/сек
    Программа кодирования : VirtualDubMod 1.5.10.3 |www.virtualdub-fr.org|| (build 2550/release)
    Библиотека кодирования : VirtualDubMod build 2550/release
    Видео
    Идентификатор : 0
    Формат : MPEG-4 Visual
    Профиль формата : Advanced Simple@L5
    Настройки формата : BVOP2
    Параметр BVOP формата : 2
    Параметр QPel формата : Нет
    Параметр GMC формата : Без точки перехода
    Параметр матрицы формата : Default (H.263)
    Идентификатор кодека : XVID
    Идентификатор кодека/Подсказка : XviD
    Продолжительность : 43 м. 52 с.
    Битрейт : 879 Кбит/сек
    Ширина : 640 пикселей
    Высота : 360 пикселей
    Соотношение сторон : 16: 9
    Частота кадров : 25, 000 кадров/сек
    Цветовое пространство : YUV
    Субдискретизация насыщенности : 4: 2: 0
    Битовая глубина : 8 бит
    Тип развёртки : Прогрессивная
    Метод сжатия : С потерями
    Бит/(Пиксели*Кадры) : 0.153
    Размер потока : 276 Мбайт (86%)
    Библиотека кодирования : XviD 73
    Аудио
    Идентификатор : 1
    Формат : MPEG Audio
    Версия формата : Version 1
    Профиль формата : Layer 3
    Идентификатор кодека : 55
    Идентификатор кодека/Подсказка : MP3
    Продолжительность : 43 м. 52 с.
    Вид битрейта : Постоянный
    Битрейт : 128 Кбит/сек
    Каналы : 2 канала
    Частота : 48, 0 КГц
    Частота кадров : 41, 667 кадра/сек (1152 SPF)
    Метод сжатия : С потерями
    Размер потока : 40, 2 Мбайт (13%)
    Выравнивание : Соединение по промежуткам
    Продолжительность промежутка : 40 мс. (1, 00 видеокадр)
    Время предзагрузки промежутка : 504 мс.
    Библиотека кодирования : LAME3.99r
    Настройки программы : -m s -V 4 -q 2 -lowpass 17 -b 128

    Скриншоты для ознакомления



    Все одноименные релизы в Клубе
    Время раздачи: 24/7 (круглосуточно) (до появления первых 3-5 скачавших)


    Онлайн видео Неистовый, яростный, бешеный... (2011) TVRip (серии 1



    Неистовый, яростный, бешеный... (2011) TVRip (серии 1-4 из 4)
    Рейтинг →
     (голосов: 1, оценка 3/5, голосовать можно 1 раз )

    Другие торренты по теме:

  • Неистовый Санта / All Through the House (2015) HDRip [VO]
  • Hungry Heart: Wild Striker / Неистовый бомбардир [2002, TV, 52 эп.] DVDRip 480p 10bit Raw
  • Андрей Посняков | Довмонт. Неистовый князь (2018) [FB2]


    • Комментарии (0):

      Информация

      Информация

        Посетители, находящиеся в группе Гости, не могут оставлять комментарии в данной новости.

        ↓ Меню




        ↓ Опрос

        Вы добавили сайт в закладки?
        Да
        Нет


        Top 10 за месяц (Фильмы)