.
Авторизация | Регистрация
Хочешь лучшие торренты? Добавь свой email!
Добавить

Торрент скачать бесплатно

  • support: webmaster@btracker.org
» » Patricia Llewellyn | Жить Вкусно с Джейми Оливером / Jamie Oliver - Olivers Twist [52 серии] (2006) SATRip торрент скачать бесплатно


    Patricia Llewellyn | Жить Вкусно с Джейми Оливером / Jamie Oliver - Olivers Twist [52 серии] (2006) SATRip торрент скачать бесплатно

    Опубликовал: Админ | Дата: 14-06-2018, 05:00 | .torrent скачали: 0

    Patricia Llewellyn | Жить Вкусно с Джейми Оливером / Jamie Oliver - Olivers Twist [52 серии] (2006) SATRipРежиссер: Patricia Llewellyn
    Ведущий: Jamie Oliver
    Производство: Великобритания/Запись с канала КухняТВ
    Жанр: Кулинария

    Описание

    Жить вкусно с Джэйми Оливером - очень интересная передача. Простую готовку никто еще не представлял с такой интересной стороны. Британский шеф-повар по имени Джэйми откроет в своих мастер-классах удивительный мир кулинарии и тайны вкусной пищи. Никто не останется равнодушным после увлекательных эпизодов. Рецепты знаменитого повара довольно неординарные, но очень практичные и невероятно вкусные. Благодаря этому шоу вы взглянете на кулинарию совершенно другим взглядом.
    Все ингредиенты распространены или всегда можно найти замену. В цикле представлены рецепты различных кухонь мира: английской, итальянской, тайской, японской, индийской и других. Так что каждый найдет для себя, что-то по вкусу.
    Продолжительность: ~ 00: 23: 00 серия
    Качество видео: SATRip
    Язык: Английский
    Перевод: Трёхголосый, Закадровый, Профессиональный.
    Видео: Xvid, 704х528, ~2480-3473 kbps
    Аудио: MP3, 2 ch, 108-192 kbps

    Общее
    Полное имя : F: Жить_вкусно_с_Джейми_Оливером_52_серии_SatRipЖить вкусно с Джейми Оливером. 1 серия.avi
    Формат : AVI
    Формат/Информация : Audio Video Interleave
    Размер файла : 624 Мбайт
    Продолжительность : 24 м. 2 с.
    Общий поток : 3631 Кбит/сек
    Программа кодирования : VirtualDubMod 1.5.4.1 (build 2178/release)
    Библиотека кодирования : VirtualDubMod build 2178/release
    Видео
    Идентификатор : 0
    Формат : MPEG-4 Visual
    Профиль формата : Advanced Simple@L5
    Параметр BVOP формата : 1
    Параметр QPel формата : Нет
    Параметр GMC формата : Без точки перехода
    Параметр матрицы формата : Выборочная
    Идентификатор кодека : XVID
    Идентификатор кодека/Подсказка : XviD
    Продолжительность : 24 м. 2 с.
    Битрейт : 3432 Кбит/сек
    Ширина : 704 пикселя
    Высота : 528 пикселей
    Соотношение сторон : 4: 3
    Частота кадров : 25, 000 кадров/сек
    Цветовое пространство : YUV
    Субдискретизация насыщенности : 4: 2: 0
    Битовая глубина : 8 бит
    Тип развёртки : Прогрессивная
    Метод сжатия : С потерями
    Бит/(Пиксели*Кадры) : 0.369
    Размер потока : 590 Мбайт (95%)
    Библиотека кодирования : XviD 1.2.1 (UTC 2008-12-04)
    Аудио
    Идентификатор : 1
    Формат : MPEG Audio
    Версия формата : Version 1
    Профиль формата : Layer 2
    Идентификатор кодека : 50
    Продолжительность : 24 м. 1 с.
    Вид битрейта : Постоянный
    Битрейт : 192 Кбит/сек
    Каналы : 2 канала
    Частота : 48, 0 КГц
    Метод сжатия : С потерями
    Размер потока : 33, 0 Мбайт (5%)
    Выравнивание : Соединение по промежуткам
    Продолжительность промежутка : 80 мс. (2, 00 видеокадра)
    Время предзагрузки промежутка : 504 мс.
    Общее
    Полное имя : F: Жить_вкусно_с_Джейми_Оливером_52_серии_SatRipЖить вкусно с Джейми Оливером. 2 серия.avi
    Формат : AVI
    Формат/Информация : Audio Video Interleave
    Размер файла : 632 Мбайт
    Продолжительность : 24 м. 3 с.
    Общий поток : 3673 Кбит/сек
    Программа кодирования : VirtualDubMod 1.5.4.1 (build 2178/release)
    Библиотека кодирования : VirtualDubMod build 2178/release
    Видео
    Идентификатор : 0
    Формат : MPEG-4 Visual
    Профиль формата : Advanced Simple@L5
    Параметр BVOP формата : 1
    Параметр QPel формата : Нет
    Параметр GMC формата : Без точки перехода
    Параметр матрицы формата : Выборочная
    Идентификатор кодека : XVID
    Идентификатор кодека/Подсказка : XviD
    Продолжительность : 24 м. 3 с.
    Битрейт : 3473 Кбит/сек
    Ширина : 704 пикселя
    Высота : 528 пикселей
    Соотношение сторон : 4: 3
    Частота кадров : 25, 000 кадров/сек
    Цветовое пространство : YUV
    Субдискретизация насыщенности : 4: 2: 0
    Битовая глубина : 8 бит
    Тип развёртки : Прогрессивная
    Метод сжатия : С потерями
    Бит/(Пиксели*Кадры) : 0.374
    Размер потока : 598 Мбайт (95%)
    Библиотека кодирования : XviD 1.2.1 (UTC 2008-12-04)
    Аудио
    Идентификатор : 1
    Формат : MPEG Audio
    Версия формата : Version 1
    Профиль формата : Layer 2
    Идентификатор кодека : 50
    Продолжительность : 24 м. 3 с.
    Вид битрейта : Постоянный
    Битрейт : 192 Кбит/сек
    Каналы : 2 канала
    Частота : 48, 0 КГц
    Метод сжатия : С потерями
    Размер потока : 33, 0 Мбайт (5%)
    Выравнивание : Соединение по промежуткам
    Продолжительность промежутка : 80 мс. (2, 00 видеокадра)
    Время предзагрузки промежутка : 504 мс.


    Patricia Llewellyn | Жить Вкусно с Джейми Оливером/Jamie Oliver - Olivers Twist [52 серии] (2006) SATRip
    Рейтинг →
     (голосов: 1, оценка 5/5, голосовать можно 1 раз )

    Другие торренты по теме:

  • Patricia Kaas - Patricia Kaas (2016) Deluxe [FLAC|Lossless|tracks] <Pop, Chanson>
  • Patricia Kaas - Mademoiselle chante... (1988 / 2004) [DTS 5.1 44.1 / 16 | .wav+.cue (SACD)] <Vocal International Pop / Rock> скачать через торрент бесплатно
  • Patricia Kaas - Super Hits Collection (2015) [MP3|320 кб / с]<Pop, Chanson> скачать через торрент бесплатно
  • Patricia Kaas - Good Songs (2015) [MP3|192 кб / с]<Pop, Shanson> скачать через торрент бесплатно
  • Patricia Kaas - Scene De Vie (1990) [FLAC|tracks+.cue]<Jazz, Pop> скачать через торрент бесплатно
  • Patricia Spero - Harpe et Relaxation (2014) [FLAC|Lossless|image + .cue] <Classical, Harp>
  • Patricia Kaas - Je Te Dis Vous (1993) [FLAC|Lossless|image + .cue] <Pop, Chanson>
  • Patricia Kaas - Mademoiselle Chante... (1988) 1992, Deon Ltd. [FLAC|Lossless|image + .cue] <Pop, Chanson>


    • Комментарии (0):

      Информация

      Информация

        Посетители, находящиеся в группе Гости, не могут оставлять комментарии в данной новости.

        ↓ Меню




        ↓ Опрос

        Вы добавили сайт в закладки?
        Да
        Нет


        Top 10 за месяц (Книги)