.
Авторизация | Регистрация
Хочешь лучшие торренты? Добавь свой email!
Добавить

Торрент скачать бесплатно

  • support: webmaster@btracker.org
» » Webformyself | Фреймворк Vue.js. Полное руководство для современной веб-разработки (2018) [unpacked] торрент скачать бесплатно


    Webformyself | Фреймворк Vue.js. Полное руководство для современной веб-разработки (2018) [unpacked] торрент скачать бесплатно

    Опубликовал: Админ | Дата: 28-04-2018, 05:00 | .torrent скачали: 109

    Webformyself | Фреймворк Vue.js. Полное руководство для современной веб-разработки (2018) [unpacked]Автор (издатель): Webformyself
    Жанр: Программирование, JavaScript, Vue.js
    Системные требования:
    • Операционная система Microsoft Windows XP/Vista/7/8/10
    • Процессор Pentium III 750 Мгц
    • 512 Мб оперативной памяти
    • Разрешение экрана 1280x720 с глубиной цвета 16 бит

    Формат: unpacked

    Описание

    Vue позаимствовал многое из ангулар и реакт, но проще в понимании и реализации. И это никак не отображается на ваших приложениях. Они по прежнему гибкие, легкие, быстрые, функциональные, безопасные и масштабируемые.
    Основная часть курса включает 117 уроков общей продолжительностью 18 часов. И это без учета бонусов, в которых содержится ВСЯ необходимая теоретическая база для овладения Vue.js с полного нуля.
    Продолжительность: 43: 31: 42
    Качество видео: PCRec
    Видео: AVC/H.264, 1280x720, ~61-587 Kbps
    Аудио: AAC, 2 ch, 126 Kbps
    Общее
    Полное имя : .videokurspart229.mp4
    Формат : MPEG-4
    Профиль формата : Base Media/Version 2
    Идентификатор кодека : mp42 (isom/mp42)
    Размер файла : 13, 2 Мбайт
    Продолжительность : 4 м. 53 с.
    Режим общего битрейта : Переменный
    Общий поток : 378 Кбит/сек
    Дата кодирования : UTC 2018-03-16 14: 19: 39
    Дата пометки : UTC 2018-03-16 14: 19: 39
    Видео
    Идентификатор : 1
    Формат : AVC
    Формат/Информация : Advanced Video Codec
    Профиль формата : Baseline@L3.1
    Настройки формата : 3 Ref Frames
    Параметр CABAC формата : Нет
    Параметр RefFrames формата : 3 кадра
    Идентификатор кодека : avc1
    Идентификатор кодека/Информация : Advanced Video Coding
    Продолжительность : 4 м. 53 с.
    Битрейт : 249 Кбит/сек
    Ширина : 1280 пикселей
    Высота : 720 пикселей
    Соотношение сторон : 16: 9
    Режим частоты кадров : Постоянный
    Частота кадров : 30, 000 кадров/сек
    Стандарт вещания : NTSC
    Цветовое пространство : YUV
    Субдискретизация насыщенности : 4: 2: 0
    Битовая глубина : 8 бит
    Тип развёртки : Прогрессивная
    Бит/(Пиксели*Кадры) : 0.009
    Размер потока : 8, 73 Мбайт (66%)
    Язык : English
    Дата кодирования : UTC 2018-03-16 14: 19: 39
    Дата пометки : UTC 2018-03-16 14: 19: 39
    Цветовой диапазон : Limited
    Аудио
    Идентификатор : 2
    Формат : AAC
    Формат/Информация : Advanced Audio Codec
    Профиль формата : LC
    Идентификатор кодека : mp4a-40-2
    Продолжительность : 4 м. 53 с.
    Вид битрейта : Переменный
    Битрейт : 126 Кбит/сек
    Максимальный битрейт : 390 Кбит/сек
    Каналы : 2 канала
    Расположение каналов : Front: L R
    Частота : 44, 1 КГц
    Частота кадров : 43, 066 кадра/сек (1024 SPF)
    Метод сжатия : С потерями
    Размер потока : 4, 40 Мбайт (33%)
    Язык : English
    Дата кодирования : UTC 2018-03-16 14: 19: 39
    Дата пометки : UTC 2018-03-16 14: 19: 39


    Webformyself | Фреймворк Vue.js. Полное руководство для современной веб-разработки (2018) [unpacked]
    Рейтинг →
     (голосов: 1, оценка 5/5, голосовать можно 1 раз )

    Другие торренты по теме:

  • WebForMySelf | Фреймворк CakePHP: с Нуля до Гуру (2015) PCRec [H.264] скачать через торрент бесплатно


    • Комментарии (0):

      Информация

      Информация

        Посетители, находящиеся в группе Гости, не могут оставлять комментарии в данной новости.

        ↓ Меню




        ↓ Опрос

        Вы добавили сайт в закладки?
        Да
        Нет


        Top 10 за месяц (Книги)