.
Авторизация | Регистрация
Хочешь лучшие торренты? Добавь свой email!
Добавить

Торрент скачать бесплатно

» » WebDesign Master | Создание контентного сайта на Jekyll от А до Я (2018) PCRec [H.264 / 1080p-LQ] торрент скачать бесплатно




    WebDesign Master | Создание контентного сайта на Jekyll от А до Я (2018) PCRec [H.264 / 1080p-LQ] торрент скачать бесплатно

    Опубликовал: Админ | Дата: 16-04-2018, 05:00 | .torrent скачали: 0

    WebDesign Master | Создание контентного сайта на Jekyll от А до Я (2018) PCRec [H.264 / 1080p-LQ]Автор (режиссер): WebDesign Master
    Жанр: Видеокурс

    Описание

    Данный курс является уникальным, наиболее полным и подробным руководством по созданию новостного/контентного сайта от автора с опытом разработки и монетизации контентных проектов. Здесь есть всё: создание дизайна, адаптивная вёрстка, посадка на движок, настройка, размещение сайта на хостинге и заработок на своем сайте.
    Продолжительность: 18: 04: 20
    Качество видео: PCRec
    Видео: AVC/H.264, 1920x1080, ~267-2163 Kbps
    Аудио: AAC, 2 ch, 127-128 Kbps

    Общее
    Полное имя : .videosBlock-0-Base1.mp4
    Формат : MPEG-4
    Профиль формата : Base Media
    Идентификатор кодека : isom (isom/iso2/avc1/mp41)
    Размер файла : 188 Мбайт
    Продолжительность : 23 м. 18 с.
    Общий поток : 1131 Кбит/сек
    Название фильма : 1
    Исполнитель : WebDesign Master
    Программа кодирования : Lavf58.0.100
    Видео
    Идентификатор : 1
    Формат : AVC
    Формат/Информация : Advanced Video Codec
    Профиль формата : Main@L4.2
    Настройки формата : 2 Ref Frames
    Параметр CABAC формата : Нет
    Параметр RefFrames формата : 2 кадра
    Идентификатор кодека : avc1
    Идентификатор кодека/Информация : Advanced Video Coding
    Продолжительность : 23 м. 18 с.
    Битрейт : 993 Кбит/сек
    Ширина : 1920 пикселей
    Высота : 1080 пикселей
    Соотношение сторон : 16: 9
    Режим частоты кадров : Постоянный
    Частота кадров : 59, 940 (60000/1001) кадров/сек
    Цветовое пространство : YUV
    Субдискретизация насыщенности : 4: 2: 0
    Битовая глубина : 8 бит
    Тип развёртки : Прогрессивная
    Бит/(Пиксели*Кадры) : 0.008
    Размер потока : 166 Мбайт (88%)
    Библиотека кодирования : x264 core 148 r2762 90a61ec
    Настройки программы : cabac=0/ref=2/deblock=1: 0: 0/analyse=0x1: 0x11/me=hex/subme=5/psy=1/psy_rd=1.00: 0.00/mixed_ref=1/me_range=16/chroma_me=1/trellis=0/8x8dct=0/cqm=0/deadzone=21, 11/fast_pskip=1/chroma_qp_offset=0/threads=12/lookahead_threads=3/sliced_threads=0/nr=0/decimate=1/interlaced=0/bluray_compat=0/constrained_intra=0/bframes=0/weightp=2/keyint=200/keyint_min=25/scenecut=40/intra_refresh=0/rc_lookahead=40/rc=crf/mbtree=1/crf=22.0/qcomp=0.60/qpmin=5/qpmax=30/qpstep=4/ip_ratio=1.41/aq=1: 1.00
    Аудио
    Идентификатор : 2
    Формат : AAC
    Формат/Информация : Advanced Audio Codec
    Профиль формата : LC
    Идентификатор кодека : mp4a-40-2
    Продолжительность : 23 м. 18 с.
    Duration_LastFrame : -11 мс.
    Вид битрейта : Постоянный
    Битрейт : 128 Кбит/сек
    Каналы : 2 канала
    Расположение каналов : Front: L R
    Частота : 44, 1 КГц
    Частота кадров : 43, 066 кадра/сек (1024 SPF)
    Метод сжатия : С потерями
    Размер потока : 21, 3 Мбайт (11%)
    Язык : English
    Default : Да
    AlternateGroup/String : 1


    WebDesign Master | Создание контентного сайта на Jekyll от А до Я (2018) PCRec [H.264/1080p-LQ]
    Рейтинг →
     (голосов: 1, оценка 5/5, голосовать можно 1 раз )

    Другие торренты по теме:

  • WebDesign Master | OpenCart: Создание современного интернет-магазина от А до Я (2017) PCRec


    • Комментарии (0):

      Информация

      Информация

        Посетители, находящиеся в группе Гости, не могут оставлять комментарии в данной новости.

        ↓ Меню




        ↓ Опрос

        Вы добавили сайт в закладки?
        Да
        Нет


        Top 10 за месяц (Книги)