.
Авторизация | Регистрация
Хочешь лучшие торренты? Добавь свой email!
Добавить

Торрент скачать бесплатно

» » Академия верстки | Веб-разработчик 12.0 (2018) PCRec [H.264] торрент скачать бесплатно


    Академия верстки | Веб-разработчик 12.0 (2018) PCRec [H.264] торрент скачать бесплатно

    Опубликовал: Админ | Дата: 4-04-2018, 05:00 | .torrent скачали: 5

    Академия верстки | Веб-разработчик 12.0 (2018) PCRec [H.264]Автор (режиссер): Академия верстки
    Производство: Артём Исламов
    Жанр: Веб-разработка, HTML, CSS

    Описание

    За 7 недель обучения мы подробно разберем все этапы создания сайтов, научимся готовить прототипы, получим навыки создания и работы с дизайн-макетом PSD.
    Продолжительность: 40: 57: 53
    Качество видео: PCRec
    Видео: AVC/H.264, 1152x720-1920x1080, ~42-1901 Kbps
    Аудио: AAC, 2 ch, 125-319 Kbps

    Общее
    Полное имя : .rsvideopractica2-1.mp4
    Формат : MPEG-4
    Профиль формата : Base Media/Version 2
    Идентификатор кодека : mp42 (isom/mp42)
    Размер файла : 66, 9 Мбайт
    Продолжительность : 29 м. 21 с.
    Режим общего битрейта : Переменный
    Общий поток : 319 Кбит/сек
    Дата кодирования : UTC 2017-04-25 12: 56: 59
    Дата пометки : UTC 2017-04-25 12: 56: 59
    gsst : 0
    gstd : 1761326
    Видео
    Идентификатор : 1
    Формат : AVC
    Формат/Информация : Advanced Video Codec
    Профиль формата : Main@L3.1
    Настройки формата : CABAC/3 Ref Frames
    Параметр CABAC формата : Да
    Параметр RefFrames формата : 3 кадра
    Идентификатор кодека : avc1
    Идентификатор кодека/Информация : Advanced Video Coding
    Продолжительность : 29 м. 21 с.
    Битрейт : 190 Кбит/сек
    Ширина : 1152 пикселя
    Высота : 720 пикселей
    Соотношение сторон : 16: 10
    Режим частоты кадров : Постоянный
    Частота кадров : 30, 000 кадров/сек
    Цветовое пространство : YUV
    Субдискретизация насыщенности : 4: 2: 0
    Битовая глубина : 8 бит
    Тип развёртки : Прогрессивная
    Бит/(Пиксели*Кадры) : 0.008
    Размер потока : 39, 8 Мбайт (59%)
    Заголовок : ISO Media file produced by Google Inc.
    Дата кодирования : UTC 2017-04-25 12: 56: 59
    Дата пометки : UTC 2017-04-25 12: 56: 59
    Аудио
    Идентификатор : 2
    Формат : AAC
    Формат/Информация : Advanced Audio Codec
    Профиль формата : LC
    Идентификатор кодека : mp4a-40-2
    Продолжительность : 29 м. 21 с.
    Вид битрейта : Переменный
    Битрейт : 126 Кбит/сек
    Каналы : 2 канала
    Расположение каналов : Front: L R
    Частота : 44, 1 КГц
    Частота кадров : 43, 066 кадра/сек (1024 SPF)
    Метод сжатия : С потерями
    Размер потока : 26, 4 Мбайт (39%)
    Заголовок : ISO Media file produced by Google Inc.
    Дата кодирования : UTC 2017-04-25 12: 56: 59
    Дата пометки : UTC 2017-04-25 12: 56: 59
    Общее
    Полное имя : .rsvideo2-8.mp4
    Формат : MPEG-4
    Профиль формата : Base Media/Version 2
    Идентификатор кодека : mp42 (isom/mp42)
    Размер файла : 42, 7 Мбайт
    Продолжительность : 25 м. 19 с.
    Режим общего битрейта : Переменный
    Общий поток : 236 Кбит/сек
    Дата кодирования : UTC 2018-02-06 13: 53: 35
    Дата пометки : UTC 2018-02-06 13: 53: 35
    gsst : 0
    gstd : 1519676
    Видео
    Идентификатор : 1
    Формат : AVC
    Формат/Информация : Advanced Video Codec
    Профиль формата : Main@L3.1
    Настройки формата : CABAC/3 Ref Frames
    Параметр CABAC формата : Да
    Параметр RefFrames формата : 3 кадра
    Идентификатор кодека : avc1
    Идентификатор кодека/Информация : Advanced Video Coding
    Продолжительность : 25 м. 19 с.
    Битрейт : 106 Кбит/сек
    Ширина : 1268 пикселей
    Высота : 720 пикселей
    Соотношение сторон : 16: 9
    Режим частоты кадров : Переменный
    Частота кадров : 30, 000 кадров/сек
    Минимальная частота кадров : 15, 000 кадров/сек
    Максимальная частота кадров : 60, 000 кадров/сек
    Цветовое пространство : YUV
    Субдискретизация насыщенности : 4: 2: 0
    Битовая глубина : 8 бит
    Тип развёртки : Прогрессивная
    Бит/(Пиксели*Кадры) : 0.004
    Размер потока : 19, 3 Мбайт (45%)
    Заголовок : ISO Media file produced by Google Inc. Created on: 02/06/2018.
    Дата кодирования : UTC 2018-02-06 13: 53: 35
    Дата пометки : UTC 2018-02-06 13: 53: 35
    Цветовой диапазон : Limited
    Основные цвета : BT.709
    Характеристики трансфера : BT.709
    Коэффициенты матрицы : BT.709
    Аудио
    Идентификатор : 2
    Формат : AAC
    Формат/Информация : Advanced Audio Codec
    Профиль формата : LC
    Идентификатор кодека : mp4a-40-2
    Продолжительность : 25 м. 19 с.
    Продолжительность оригинала : 25 м. 19 с.
    Вид битрейта : Переменный
    Битрейт : 126 Кбит/сек
    Каналы : 2 канала
    Расположение каналов : Front: L R
    Частота : 44, 1 КГц
    Частота кадров : 43, 066 кадра/сек (1024 SPF)
    Метод сжатия : С потерями
    Размер потока : 22, 8 Мбайт (53%)
    Размер потока оригинала : 22, 8 Мбайт (53%)
    Заголовок : ISO Media file produced by Google Inc. Created on: 02/06/2018.
    Дата кодирования : UTC 2018-02-06 13: 53: 35
    Дата пометки : UTC 2018-02-06 13: 53: 35
    Общее
    Полное имя : .rsvideo14-3.mp4
    Формат : MPEG-4
    Профиль формата : Base Media/Version 2
    Идентификатор кодека : mp42 (isom/mp42)
    Размер файла : 13, 3 Мбайт
    Продолжительность : 8 м. 52 с.
    Режим общего битрейта : Переменный
    Общий поток : 210 Кбит/сек
    Дата кодирования : UTC 2017-05-03 10: 07: 19
    Дата пометки : UTC 2017-05-03 10: 07: 19
    gsst : 0
    gstd : 533014
    Видео
    Идентификатор : 1
    Формат : AVC
    Формат/Информация : Advanced Video Codec
    Профиль формата : Main@L3.1
    Настройки формата : CABAC/3 Ref Frames
    Параметр CABAC формата : Да
    Параметр RefFrames формата : 3 кадра
    Идентификатор кодека : avc1
    Идентификатор кодека/Информация : Advanced Video Coding
    Продолжительность : 8 м. 52 с.
    Битрейт : 80, 4 Кбит/сек
    Ширина : 1280 пикселей
    Высота : 720 пикселей
    Соотношение сторон : 16: 9
    Режим частоты кадров : Постоянный
    Частота кадров : 30, 000 кадров/сек
    Цветовое пространство : YUV
    Субдискретизация насыщенности : 4: 2: 0
    Битовая глубина : 8 бит
    Тип развёртки : Прогрессивная
    Бит/(Пиксели*Кадры) : 0.003
    Размер потока : 5, 11 Мбайт (38%)
    Заголовок : ISO Media file produced by Google Inc.
    Дата кодирования : UTC 2017-05-03 10: 07: 19
    Дата пометки : UTC 2017-05-03 10: 07: 19
    Цветовой диапазон : Limited
    Основные цвета : BT.709
    Характеристики трансфера : BT.709
    Коэффициенты матрицы : BT.709
    Аудио
    Идентификатор : 2
    Формат : AAC
    Формат/Информация : Advanced Audio Codec
    Профиль формата : LC
    Идентификатор кодека : mp4a-40-2
    Продолжительность : 8 м. 52 с.
    Вид битрейта : Переменный
    Битрейт : 126 Кбит/сек
    Каналы : 2 канала
    Расположение каналов : Front: L R
    Частота : 44, 1 КГц
    Частота кадров : 43, 066 кадра/сек (1024 SPF)
    Метод сжатия : С потерями
    Размер потока : 7, 98 Мбайт (60%)
    Заголовок : ISO Media file produced by Google Inc.
    Дата кодирования : UTC 2017-05-03 10: 07: 19
    Дата пометки : UTC 2017-05-03 10: 07: 19
    Общее
    Полное имя : .rsvideo5.mp4
    Формат : MPEG-4
    Профиль формата : Base Media/Version 2
    Идентификатор кодека : mp42 (mp42/isom)
    Размер файла : 310 Мбайт
    Продолжительность : 44 м. 34 с.
    Режим общего битрейта : Переменный
    Общий поток : 971 Кбит/сек
    Дата кодирования : UTC 2018-02-09 05: 10: 41
    Дата пометки : UTC 2018-02-09 05: 11: 13
    Видео
    Идентификатор : 1
    Формат : AVC
    Формат/Информация : Advanced Video Codec
    Профиль формата : High@L4.2
    Настройки формата : CABAC/4 Ref Frames
    Параметр CABAC формата : Да
    Параметр RefFrames формата : 4 кадра
    Идентификатор кодека : avc1
    Идентификатор кодека/Информация : Advanced Video Coding
    Продолжительность : 44 м. 34 с.
    Битрейт : 771 Кбит/сек
    Ширина : 1920 пикселей
    Высота : 1080 пикселей
    Соотношение сторон : 16: 9
    Режим частоты кадров : Переменный
    Частота кадров : 60, 000 кадров/сек
    Минимальная частота кадров : 59, 960 кадров/сек
    Максимальная частота кадров : 60, 040 кадров/сек
    Цветовое пространство : YUV
    Субдискретизация насыщенности : 4: 2: 0
    Битовая глубина : 8 бит
    Тип развёртки : Прогрессивная
    Бит/(Пиксели*Кадры) : 0.006
    Размер потока : 246 Мбайт (79%)
    Библиотека кодирования : x264 core 155 r10 b00bcaf
    Настройки программы : cabac=1/ref=4/deblock=1: 0: 0/analyse=0x3: 0x113/me=hex/subme=8/psy=1/psy_rd=1.00: 0.00/mixed_ref=1/me_range=16/chroma_me=1/trellis=2/8x8dct=1/cqm=0/deadzone=21, 11/fast_pskip=1/chroma_qp_offset=-2/threads=34/lookahead_threads=5/sliced_threads=0/nr=0/decimate=1/interlaced=0/bluray_compat=0/stitchable=1/constrained_intra=0/bframes=3/b_pyramid=2/b_adapt=2/b_bias=0/direct=3/weightb=1/open_gop=0/weightp=2/keyint=infinite/keyint_min=60/scenecut=40/intra_refresh=0/rc_lookahead=50/rc=crf/mbtree=1/crf=20.0/qcomp=0.60/qpmin=5/qpmax=69/qpstep=4/vbv_maxrate=5500/vbv_bufsize=15000/crf_max=0.0/nal_hrd=none/filler=0/ip_ratio=1.40/aq=1: 1.00
    Дата кодирования : UTC 2018-02-09 05: 10: 41
    Дата пометки : UTC 2018-02-09 05: 11: 13
    Цветовой диапазон : Limited
    Основные цвета : BT.709
    Характеристики трансфера : BT.709
    Коэффициенты матрицы : BT.709
    Аудио
    Идентификатор : 2
    Формат : MPEG Audio
    Версия формата : Version 1
    Профиль формата : Layer 3
    Настройки формата : Joint stereo/MS Stereo
    Идентификатор кодека : mp4a-69
    Продолжительность : 44 м. 34 с.
    Вид битрейта : Переменный
    Битрейт : 192 Кбит/сек
    Каналы : 2 канала
    Частота : 44, 1 КГц
    Частота кадров : 38, 281 кадров/сек (1152 SPF)
    Метод сжатия : С потерями
    Размер потока : 61, 3 Мбайт (20%)
    Заголовок : Stereo
    Библиотека кодирования : LAME3.98.4
    Дата кодирования : UTC 2018-02-09 05: 10: 41
    Дата пометки : UTC 2018-02-09 05: 11: 13


    Академия верстки | Веб-разработчик 12.0 (2018) PCRec [H.264]
    Рейтинг →
     (голосов: 1, оценка 3/5, голосовать можно 1 раз )

    Другие торренты по теме:

  • Академия верстки | Базовый JavaScript (2017) PCRec [H.264]
  • Академия верстки | Wordpress для верстальщика (2018) PCRec [H.264]
  • Академия верстки | Javascript для верстальщика (2018) PCRec [H.264]


    • Комментарии (0):

      Информация

      Информация

        Посетители, находящиеся в группе Гости, не могут оставлять комментарии в данной новости.

        ↓ Меню




        ↓ Опрос

        Вы добавили сайт в закладки?
        Да
        Нет


        Top 10 за месяц (Книги)