.
Авторизация | Регистрация
Хочешь лучшие торренты? Добавь свой email!
Добавить

Торрент скачать бесплатно

  • support: webmaster@btracker.org
» » Дмитрий Елисеев | Сайт объявлений на Laravel (2018) PCRec [H.264 / 720p-LQ] торрент скачать бесплатно


    Дмитрий Елисеев | Сайт объявлений на Laravel (2018) PCRec [H.264 / 720p-LQ] торрент скачать бесплатно

    Опубликовал: Админ | Дата: 4-04-2018, 05:00 | .torrent скачали: 15

    Дмитрий Елисеев | Сайт объявлений на Laravel (2018) PCRec [H.264 / 720p-LQ]Автор (режиссер): Дмитрий Елисеев
    Жанр: Laravel, PHP, Программирование

    Описание

    Этот курс для вас, если Вы:
    - Занимаетесь разработкой на Laravel или планируете его изучить
    - Разрабатываете на других фреймворках, но хотите перенять знания к себе в проект
    - Испытываете сложности с документацией и хотите потренироваться на практике
    - Хотите ознакомиться с различными архитектурными подходами
    - Хотите перенять лучшие практики различных фреймворков
    - Хотите потренироваться в применении знаний ООП или узнать, что это такое
    - Хотите изучить модульное тестирование на реальных примерах
    - Планируете заниматься разработкой REST API, его тестированием и документированием
    - Хотите ознакомиться с NoSQL-технологиями
    - Хотите использовать виртуальные машины для разработки
    - Хотите узнать слабые и сильные места различных фреймворков
    Продолжительность: 68: 29: 09
    Качество видео: PCRec
    Видео: AVC/H.264, 1280x720, ~220-290 Kbps
    Аудио: AAC, 2 ch, 87-92 Kbps

    Общее
    Полное имя : .1 - Философия, ТЗ, установка и настройкаСайт_на_Laravel_01.03.2018_19-10-03.mp4
    Формат : MPEG-4
    Профиль формата : Base Media
    Идентификатор кодека : isom (isom/iso2/avc1/mp41)
    Размер файла : 846 Мбайт
    Продолжительность : 5 ч. 35 м.
    Общий поток : 352 Кбит/сек
    Программа кодирования : Lavf57.25.100
    Видео
    Идентификатор : 1
    Формат : AVC
    Формат/Информация : Advanced Video Codec
    Профиль формата : Baseline@L3.1
    Настройки формата : 1 Ref Frames
    Параметр CABAC формата : Нет
    Параметр RefFrames формата : 1 кадр
    Идентификатор кодека : avc1
    Идентификатор кодека/Информация : Advanced Video Coding
    Продолжительность : 5 ч. 35 м.
    Битрейт : 257 Кбит/сек
    Ширина : 1280 пикселей
    Высота : 720 пикселей
    Соотношение сторон : 16: 9
    Режим частоты кадров : Постоянный
    Частота кадров : 25, 000 кадров/сек
    Цветовое пространство : YUV
    Субдискретизация насыщенности : 4: 2: 0
    Битовая глубина : 8 бит
    Тип развёртки : Прогрессивная
    Бит/(Пиксели*Кадры) : 0.011
    Размер потока : 617 Мбайт (73%)
    Цветовой диапазон : Full
    Аудио
    Идентификатор : 2
    Формат : AAC
    Формат/Информация : Advanced Audio Codec
    Профиль формата : LC
    Идентификатор кодека : mp4a-40-2
    Продолжительность : 5 ч. 35 м.
    Вид битрейта : Постоянный
    Битрейт : 91, 0 Кбит/сек
    Каналы : 2 канала
    Channel(s)_Original : 1 канал
    Расположение каналов : Front: C
    Частота : 48, 0 КГц
    Частота кадров : 46, 875 кадров/сек (1024 SPF)
    Метод сжатия : С потерями
    Размер потока : 219 Мбайт (26%)
    Default : Да
    AlternateGroup/String : 1


    Дмитрий Елисеев | Сайт объявлений на Laravel (2018) PCRec [H.264/720p-LQ]
    Рейтинг →
     (голосов: 1, оценка 4/5, голосовать можно 1 раз )

    Другие торренты по теме:

  • Дмитрий Елисеев | Интернет-магазин на Yii2 (2017) PCRec
  • Дмитрий Елисеев | Неделя ООП (2016) PCRec [H.264 / 720p-LQ]
  • Дмитрий Елисеев | Цифровая электроника для начинающих (2018) [PDF, FB2, RTF]


    • Комментарии (0):

      Информация

      Информация

        Посетители, находящиеся в группе Гости, не могут оставлять комментарии в данной новости.

        ↓ Меню




        ↓ Опрос

        Вы добавили сайт в закладки?
        Да
        Нет


        Top 10 за месяц (Книги)