.
Авторизация | Регистрация
Хочешь лучшие торренты? Добавь свой email!
Добавить

Торрент скачать бесплатно

» » TRX TV | Power (2011) WEB-DLRip [H.264][EN] торрент скачать бесплатно


    TRX TV | Power (2011) WEB-DLRip [H.264][EN] торрент скачать бесплатно

    Опубликовал: Админ | Дата: 2-04-2018, 05:00 | .torrent скачали: 2

    TRX TV | Power (2011) WEB-DLRip [H.264][EN]Автор (режиссер): TRX TV
    Производство: TRX TV
    Жанр: Функциональный тренинг

    Описание

    Выпуск TRX TV посвященный развитию максимальной силы
    Продолжительность: 01: 11: 05
    Качество видео: WEB-DLRip
    Перевод: Отсутствует
    Язык озвучки: Английский
    Видео: AVC/H.264, 640х360, ~1444 Kbps
    Аудио: AAC, 2 ch, 128 Kbps

    Общее
    Полное имя : I: РазноеЗдоровьеTRXTRXTV - PowerTRX TV Balanced Power - VisualGuide.pdf
    Формат : PDF
    Версия формата : 1.5
    Размер файла : 860 Кбайт
    Текст
    Формат : PDF
    Общее
    Полное имя : I: РазноеЗдоровьеTRXTRXTV - PowerTRX TV Balanced Power - Workout.m4v
    Формат : MPEG-4
    Идентификатор кодека : M4V (M4V /M4A /mp42/isom)
    Размер файла : 384 Мбайт
    Продолжительность : 34 м. 3 с.
    Режим общего битрейта : Переменный
    Общий поток : 1577 Кбит/сек
    Дата кодирования : UTC 2011-07-22 07: 26: 37
    Дата пометки : UTC 2011-07-22 07: 26: 59
    Видео
    Идентификатор : 2
    Формат : AVC
    Формат/Информация : Advanced Video Codec
    Профиль формата : Baseline@L3
    Настройки формата : 1 Ref Frames
    Параметр CABAC формата : Нет
    Параметр RefFrames формата : 1 кадр
    Параметр GOP формата : M=1, N=120
    Идентификатор кодека : avc1
    Идентификатор кодека/Информация : Advanced Video Coding
    Продолжительность : 34 м. 3 с.
    Битрейт : 1444 Кбит/сек
    Ширина : 640 пикселей
    Высота : 360 пикселей
    Соотношение сторон : 16: 9
    Режим частоты кадров : Постоянный
    Частота кадров : 23, 976 (23976/1000) кадра/сек
    Цветовое пространство : YUV
    Субдискретизация насыщенности : 4: 2: 0
    Битовая глубина : 8 бит
    Тип развёртки : Прогрессивная
    Бит/(Пиксели*Кадры) : 0.261
    Размер потока : 352 Мбайт (92%)
    Язык : English
    Дата кодирования : UTC 2011-07-22 07: 26: 35
    Дата пометки : UTC 2011-07-22 07: 26: 59
    Цветовой диапазон : Limited
    Основные цвета : BT.601 NTSC
    Характеристики трансфера : BT.709
    Коэффициенты матрицы : BT.601
    Аудио
    Идентификатор : 3
    Формат : AAC
    Формат/Информация : Advanced Audio Codec
    Профиль формата : LC
    Идентификатор кодека : mp4a-40-2
    Продолжительность : 34 м. 3 с.
    Продолжительность оригинала : 34 м. 3 с.
    Вид битрейта : Постоянный
    Битрейт : 128 Кбит/сек
    Каналы : 2 канала
    Расположение каналов : Front: L R
    Частота : 44, 1 КГц
    Частота кадров : 43, 066 кадра/сек (1024 SPF)
    Метод сжатия : С потерями
    Размер потока : 31, 5 Мбайт (8%)
    Размер потока оригинала : 31, 5 Мбайт (8%)
    Язык : English
    Дата кодирования : UTC 2011-07-22 07: 26: 35
    Дата пометки : UTC 2011-07-22 07: 26: 59
    Menus : 1
    Текст
    Идентификатор : 1
    Формат : Timed Text
    Идентификатор кодека : tx3g
    Продолжительность : 34 м. 3 с.
    Вид битрейта : Переменный
    Битрейт : 1 бит/сек
    Размер потока : 229 байт (0%)
    Язык : English
    Default : Нет
    Forced : Нет
    Дата кодирования : UTC 2011-07-22 07: 26: 35
    Дата пометки : UTC 2011-07-22 07: 26: 59
    Menu For : 3
    Общее
    Полное имя : I: РазноеЗдоровьеTRXTRXTV - PowerWeek 1TRXTV_AUG11_Power2_Wk1_Movement.m4v
    Формат : MPEG-4
    Идентификатор кодека : M4V (M4V /M4A /mp42/isom)
    Размер файла : 20, 4 Мбайт
    Продолжительность : 2 м. 25 с.
    Общий поток : 1179 Кбит/сек
    Дата кодирования : UTC 2011-07-22 23: 16: 17
    Дата пометки : UTC 2011-07-22 23: 16: 18
    Видео
    Идентификатор : 1
    Формат : AVC
    Формат/Информация : Advanced Video Codec
    Профиль формата : Baseline@L3
    Настройки формата : 1 Ref Frames
    Параметр CABAC формата : Нет
    Параметр RefFrames формата : 1 кадр
    Параметр GOP формата : M=1, N=120
    Идентификатор кодека : avc1
    Идентификатор кодека/Информация : Advanced Video Coding
    Продолжительность : 2 м. 25 с.
    Битрейт : 1068 Кбит/сек
    Ширина : 640 пикселей
    Высота : 360 пикселей
    Соотношение сторон : 16: 9
    Режим частоты кадров : Постоянный
    Частота кадров : 23, 976 (23976/1000) кадра/сек
    Цветовое пространство : YUV
    Субдискретизация насыщенности : 4: 2: 0
    Битовая глубина : 8 бит
    Тип развёртки : Прогрессивная
    Бит/(Пиксели*Кадры) : 0.193
    Размер потока : 18, 5 Мбайт (91%)
    Язык : English
    Дата кодирования : UTC 2011-07-22 23: 16: 17
    Дата пометки : UTC 2011-07-22 23: 16: 18
    Цветовой диапазон : Limited
    Основные цвета : BT.601 NTSC
    Характеристики трансфера : BT.709
    Коэффициенты матрицы : BT.601
    Аудио
    Идентификатор : 2
    Формат : AAC
    Формат/Информация : Advanced Audio Codec
    Профиль формата : LC
    Идентификатор кодека : mp4a-40-2
    Продолжительность : 2 м. 25 с.
    Продолжительность оригинала : 2 м. 25 с.
    Вид битрейта : Постоянный
    Битрейт : 108 Кбит/сек
    Номинальный битрейт : 128 Кбит/сек
    Каналы : 2 канала
    Расположение каналов : Front: L R
    Частота : 44, 1 КГц
    Частота кадров : 43, 066 кадра/сек (1024 SPF)
    Метод сжатия : С потерями
    Размер потока : 1, 86 Мбайт (9%)
    Размер потока оригинала : 1, 86 Мбайт (9%)
    Язык : English
    Дата кодирования : UTC 2011-07-22 23: 16: 17
    Дата пометки : UTC 2011-07-22 23: 16: 18
    Общее
    Полное имя : I: РазноеЗдоровьеTRXTRXTV - PowerWeek 1TRXTV_AUG11_Power2_Wk1_Sequence.m4v
    Формат : MPEG-4
    Идентификатор кодека : M4V (M4V /M4A /mp42/isom)
    Размер файла : 23, 3 Мбайт
    Продолжительность : 2 м. 45 с.
    Общий поток : 1183 Кбит/сек
    Дата кодирования : UTC 2011-07-22 23: 22: 08
    Дата пометки : UTC 2011-07-22 23: 22: 09
    Видео
    Идентификатор : 1
    Формат : AVC
    Формат/Информация : Advanced Video Codec
    Профиль формата : Baseline@L3
    Настройки формата : 1 Ref Frames
    Параметр CABAC формата : Нет
    Параметр RefFrames формата : 1 кадр
    Параметр GOP формата : M=1, N=120
    Идентификатор кодека : avc1
    Идентификатор кодека/Информация : Advanced Video Coding
    Продолжительность : 2 м. 45 с.
    Битрейт : 1074 Кбит/сек
    Ширина : 640 пикселей
    Высота : 360 пикселей
    Соотношение сторон : 16: 9
    Режим частоты кадров : Постоянный
    Частота кадров : 23, 976 (23976/1000) кадра/сек
    Цветовое пространство : YUV
    Субдискретизация насыщенности : 4: 2: 0
    Битовая глубина : 8 бит
    Тип развёртки : Прогрессивная
    Бит/(Пиксели*Кадры) : 0.194
    Размер потока : 21, 2 Мбайт (91%)
    Язык : English
    Дата кодирования : UTC 2011-07-22 23: 22: 07
    Дата пометки : UTC 2011-07-22 23: 22: 09
    Цветовой диапазон : Limited
    Основные цвета : BT.601 NTSC
    Характеристики трансфера : BT.709
    Коэффициенты матрицы : BT.601
    Аудио
    Идентификатор : 2
    Формат : AAC
    Формат/Информация : Advanced Audio Codec
    Профиль формата : LC
    Идентификатор кодека : mp4a-40-2
    Продолжительность : 2 м. 45 с.
    Продолжительность оригинала : 2 м. 45 с.
    Вид битрейта : Постоянный
    Битрейт : 106 Кбит/сек
    Номинальный битрейт : 128 Кбит/сек
    Каналы : 2 канала
    Расположение каналов : Front: L R
    Частота : 44, 1 КГц
    Частота кадров : 43, 066 кадра/сек (1024 SPF)
    Метод сжатия : С потерями
    Размер потока : 2, 09 Мбайт (9%)
    Размер потока оригинала : 2, 09 Мбайт (9%)
    Язык : English
    Дата кодирования : UTC 2011-07-22 23: 22: 07
    Дата пометки : UTC 2011-07-22 23: 22: 09
    Общее
    Полное имя : I: РазноеЗдоровьеTRXTRXTV - PowerWeek 1TRXTV_AUG11_Power2_Wk1_Tip.m4v
    Формат : MPEG-4
    Идентификатор кодека : M4V (M4V /M4A /mp42/isom)
    Размер файла : 27, 4 Мбайт
    Продолжительность : 3 м. 11 с.
    Общий поток : 1200 Кбит/сек
    Дата кодирования : UTC 2011-07-22 23: 03: 25
    Дата пометки : UTC 2011-07-22 23: 03: 27
    Видео
    Идентификатор : 1
    Формат : AVC
    Формат/Информация : Advanced Video Codec
    Профиль формата : Baseline@L3
    Настройки формата : 1 Ref Frames
    Параметр CABAC формата : Нет
    Параметр RefFrames формата : 1 кадр
    Параметр GOP формата : M=1, N=120
    Идентификатор кодека : avc1
    Идентификатор кодека/Информация : Advanced Video Coding
    Продолжительность : 3 м. 11 с.
    Битрейт : 1089 Кбит/сек
    Ширина : 640 пикселей
    Высота : 360 пикселей
    Соотношение сторон : 16: 9
    Режим частоты кадров : Постоянный
    Частота кадров : 23, 976 (23976/1000) кадра/сек
    Цветовое пространство : YUV
    Субдискретизация насыщенности : 4: 2: 0
    Битовая глубина : 8 бит
    Тип развёртки : Прогрессивная
    Бит/(Пиксели*Кадры) : 0.197
    Размер потока : 24, 9 Мбайт (91%)
    Язык : English
    Дата кодирования : UTC 2011-07-22 23: 03: 25
    Дата пометки : UTC 2011-07-22 23: 03: 27
    Цветовой диапазон : Limited
    Основные цвета : BT.601 NTSC
    Характеристики трансфера : BT.709
    Коэффициенты матрицы : BT.601
    Аудио
    Идентификатор : 2
    Формат : AAC
    Формат/Информация : Advanced Audio Codec
    Профиль формата : LC
    Идентификатор кодека : mp4a-40-2
    Продолжительность : 3 м. 11 с.
    Продолжительность оригинала : 3 м. 11 с.
    Вид битрейта : Постоянный
    Битрейт : 108 Кбит/сек
    Номинальный битрейт : 128 Кбит/сек
    Каналы : 2 канала
    Расположение каналов : Front: L R
    Частота : 44, 1 КГц
    Частота кадров : 43, 066 кадра/сек (1024 SPF)
    Метод сжатия : С потерями
    Размер потока : 2, 46 Мбайт (9%)
    Размер потока оригинала : 2, 46 Мбайт (9%)
    Язык : English
    Дата кодирования : UTC 2011-07-22 23: 03: 25
    Дата пометки : UTC 2011-07-22 23: 03: 27
    Общее
    Полное имя : I: РазноеЗдоровьеTRXTRXTV - PowerWeek 2TRXTV_AUG11_Power2_Wk2_Movement.m4v
    Формат : MPEG-4
    Идентификатор кодека : M4V (M4V /M4A /mp42/isom)
    Размер файла : 17, 4 Мбайт
    Продолжительность : 2 м. 5 с.
    Общий поток : 1158 Кбит/сек
    Дата кодирования : UTC 2011-07-22 23: 18: 48
    Дата пометки : UTC 2011-07-22 23: 18: 49
    Видео
    Идентификатор : 1
    Формат : AVC
    Формат/Информация : Advanced Video Codec
    Профиль формата : Baseline@L3
    Настройки формата : 1 Ref Frames
    Параметр CABAC формата : Нет
    Параметр RefFrames формата : 1 кадр
    Параметр GOP формата : M=1, N=120
    Идентификатор кодека : avc1
    Идентификатор кодека/Информация : Advanced Video Coding
    Продолжительность : 2 м. 5 с.
    Битрейт : 1049 Кбит/сек
    Ширина : 640 пикселей
    Высота : 360 пикселей
    Соотношение сторон : 16: 9
    Режим частоты кадров : Постоянный
    Частота кадров : 23, 976 (23976/1000) кадра/сек
    Цветовое пространство : YUV
    Субдискретизация насыщенности : 4: 2: 0
    Битовая глубина : 8 бит
    Тип развёртки : Прогрессивная
    Бит/(Пиксели*Кадры) : 0.190
    Размер потока : 15, 7 Мбайт (91%)
    Язык : English
    Дата кодирования : UTC 2011-07-22 23: 18: 48
    Дата пометки : UTC 2011-07-22 23: 18: 49
    Цветовой диапазон : Limited
    Основные цвета : BT.601 NTSC
    Характеристики трансфера : BT.709
    Коэффициенты матрицы : BT.601
    Аудио
    Идентификатор : 2
    Формат : AAC
    Формат/Информация : Advanced Audio Codec
    Профиль формата : LC
    Идентификатор кодека : mp4a-40-2
    Продолжительность : 2 м. 5 с.
    Продолжительность оригинала : 2 м. 5 с.
    Вид битрейта : Постоянный
    Битрейт : 105 Кбит/сек
    Номинальный битрейт : 128 Кбит/сек
    Каналы : 2 канала
    Расположение каналов : Front: L R
    Частота : 44, 1 КГц
    Частота кадров : 43, 066 кадра/сек (1024 SPF)
    Метод сжатия : С потерями
    Размер потока : 1, 57 Мбайт (9%)
    Размер потока оригинала : 1, 57 Мбайт (9%)
    Язык : English
    Дата кодирования : UTC 2011-07-22 23: 18: 48
    Дата пометки : UTC 2011-07-22 23: 18: 49
    Общее
    Полное имя : I: РазноеЗдоровьеTRXTRXTV - PowerWeek 2TRXTV_AUG11_Power2_Wk2_Sequence.m4v
    Формат : MPEG-4
    Идентификатор кодека : M4V (M4V /M4A /mp42/isom)
    Размер файла : 34, 1 Мбайт
    Продолжительность : 3 м. 58 с.
    Общий поток : 1199 Кбит/сек
    Дата кодирования : UTC 2011-07-22 23: 13: 17
    Дата пометки : UTC 2011-07-22 23: 13: 19
    Видео
    Идентификатор : 1
    Формат : AVC
    Формат/Информация : Advanced Video Codec
    Профиль формата : Baseline@L3
    Настройки формата : 1 Ref Frames
    Параметр CABAC формата : Нет
    Параметр RefFrames формата : 1 кадр
    Параметр GOP формата : M=1, N=120
    Идентификатор кодека : avc1
    Идентификатор кодека/Информация : Advanced Video Coding
    Продолжительность : 3 м. 58 с.
    Битрейт : 1087 Кбит/сек
    Ширина : 640 пикселей
    Высота : 360 пикселей
    Соотношение сторон : 16: 9
    Режим частоты кадров : Постоянный
    Частота кадров : 23, 976 (23976/1000) кадра/сек
    Цветовое пространство : YUV
    Субдискретизация насыщенности : 4: 2: 0
    Битовая глубина : 8 бит
    Тип развёртки : Прогрессивная
    Бит/(Пиксели*Кадры) : 0.197
    Размер потока : 31, 0 Мбайт (91%)
    Язык : English
    Дата кодирования : UTC 2011-07-22 23: 13: 16
    Дата пометки : UTC 2011-07-22 23: 13: 19
    Цветовой диапазон : Limited
    Основные цвета : BT.601 NTSC
    Характеристики трансфера : BT.709
    Коэффициенты матрицы : BT.601
    Аудио
    Идентификатор : 2
    Формат : AAC
    Формат/Информация : Advanced Audio Codec
    Профиль формата : LC
    Идентификатор кодека : mp4a-40-2
    Продолжительность : 3 м. 58 с.
    Продолжительность оригинала : 3 м. 58 с.
    Вид битрейта : Постоянный
    Битрейт : 108 Кбит/сек
    Номинальный битрейт : 128 Кбит/сек
    Каналы : 2 канала
    Расположение каналов : Front: L R
    Частота : 44, 1 КГц
    Частота кадров : 43, 066 кадра/сек (1024 SPF)
    Метод сжатия : С потерями
    Размер потока : 3, 08 Мбайт (9%)
    Размер потока оригинала : 3, 08 Мбайт (9%)
    Язык : English
    Дата кодирования : UTC 2011-07-22 23: 13: 17
    Дата пометки : UTC 2011-07-22 23: 13: 19
    Общее
    Полное имя : I: РазноеЗдоровьеTRXTRXTV - PowerWeek 2TRXTV_AUG11_Power2_Wk2_Tip.m4v
    Формат : MPEG-4
    Идентификатор кодека : M4V (M4V /M4A /mp42/isom)
    Размер файла : 19, 3 Мбайт
    Продолжительность : 2 м. 14 с.
    Общий поток : 1206 Кбит/сек
    Дата кодирования : UTC 2011-07-22 23: 26: 24
    Дата пометки : UTC 2011-07-22 23: 26: 25
    Видео
    Идентификатор : 1
    Формат : AVC
    Формат/Информация : Advanced Video Codec
    Профиль формата : Baseline@L3
    Настройки формата : 1 Ref Frames
    Параметр CABAC формата : Нет
    Параметр RefFrames формата : 1 кадр
    Параметр GOP формата : M=1, N=120
    Идентификатор кодека : avc1
    Идентификатор кодека/Информация : Advanced Video Coding
    Продолжительность : 2 м. 14 с.
    Битрейт : 1097 Кбит/сек
    Ширина : 640 пикселей
    Высота : 360 пикселей
    Соотношение сторон : 16: 9
    Режим частоты кадров : Постоянный
    Частота кадров : 23, 976 (23976/1000) кадра/сек
    Цветовое пространство : YUV
    Субдискретизация насыщенности : 4: 2: 0
    Битовая глубина : 8 бит
    Тип развёртки : Прогрессивная
    Бит/(Пиксели*Кадры) : 0.199
    Размер потока : 17, 6 Мбайт (91%)
    Язык : English
    Дата кодирования : UTC 2011-07-22 23: 26: 23
    Дата пометки : UTC 2011-07-22 23: 26: 25
    Цветовой диапазон : Limited
    Основные цвета : BT.601 NTSC
    Характеристики трансфера : BT.709
    Коэффициенты матрицы : BT.601
    Аудио
    Идентификатор : 2
    Формат : AAC
    Формат/Информация : Advanced Audio Codec
    Профиль формата : LC
    Идентификатор кодека : mp4a-40-2
    Продолжительность : 2 м. 14 с.
    Продолжительность оригинала : 2 м. 14 с.
    Вид битрейта : Постоянный
    Битрейт : 105 Кбит/сек
    Номинальный битрейт : 128 Кбит/сек
    Каналы : 2 канала
    Расположение каналов : Front: L R
    Частота : 44, 1 КГц
    Частота кадров : 43, 066 кадра/сек (1024 SPF)
    Метод сжатия : С потерями
    Размер потока : 1, 69 Мбайт (9%)
    Размер потока оригинала : 1, 69 Мбайт (9%)
    Язык : English
    Дата кодирования : UTC 2011-07-22 23: 26: 23
    Дата пометки : UTC 2011-07-22 23: 26: 25
    Общее
    Полное имя : I: РазноеЗдоровьеTRXTRXTV - PowerWeek 3TRXTV_AUG11_Power2_Wk3_Movement.m4v
    Формат : MPEG-4
    Идентификатор кодека : M4V (M4V /M4A /mp42/isom)
    Размер файла : 29, 9 Мбайт
    Продолжительность : 2 м. 35 с.
    Общий поток : 1613 Кбит/сек
    Дата кодирования : UTC 2011-07-22 19: 33: 44
    Дата пометки : UTC 2011-07-22 19: 33: 46
    Видео
    Идентификатор : 1
    Формат : AVC
    Формат/Информация : Advanced Video Codec
    Профиль формата : Baseline@L3
    Настройки формата : 1 Ref Frames
    Параметр CABAC формата : Нет
    Параметр RefFrames формата : 1 кадр
    Параметр GOP формата : M=1, N=120
    Идентификатор кодека : avc1
    Идентификатор кодека/Информация : Advanced Video Coding
    Продолжительность : 2 м. 35 с.
    Битрейт : 1502 Кбит/сек
    Ширина : 640 пикселей
    Высота : 360 пикселей
    Соотношение сторон : 16: 9
    Режим частоты кадров : Постоянный
    Частота кадров : 23, 976 (23976/1000) кадра/сек
    Цветовое пространство : YUV
    Субдискретизация насыщенности : 4: 2: 0
    Битовая глубина : 8 бит
    Тип развёртки : Прогрессивная
    Бит/(Пиксели*Кадры) : 0.272
    Размер потока : 27, 8 Мбайт (93%)
    Язык : English
    Дата кодирования : UTC 2011-07-22 19: 33: 44
    Дата пометки : UTC 2011-07-22 19: 33: 46
    Цветовой диапазон : Limited
    Основные цвета : BT.601 NTSC
    Характеристики трансфера : BT.709
    Коэффициенты матрицы : BT.601
    Аудио
    Идентификатор : 2
    Формат : AAC
    Формат/Информация : Advanced Audio Codec
    Профиль формата : LC
    Идентификатор кодека : mp4a-40-2
    Продолжительность : 2 м. 35 с.
    Продолжительность оригинала : 2 м. 35 с.
    Вид битрейта : Постоянный
    Битрейт : 108 Кбит/сек
    Номинальный битрейт : 128 Кбит/сек
    Каналы : 2 канала
    Расположение каналов : Front: L R
    Частота : 44, 1 КГц
    Частота кадров : 43, 066 кадра/сек (1024 SPF)
    Метод сжатия : С потерями
    Размер потока : 2, 01 Мбайт (7%)
    Размер потока оригинала : 2, 01 Мбайт (7%)
    Язык : English
    Дата кодирования : UTC 2011-07-22 19: 33: 44
    Дата пометки : UTC 2011-07-22 19: 33: 46
    Общее
    Полное имя : I: РазноеЗдоровьеTRXTRXTV - PowerWeek 3TRXTV_AUG11_Power2_Wk3_Sequence.m4v
    Формат : MPEG-4
    Идентификатор кодека : M4V (M4V /M4A /mp42/isom)
    Размер файла : 55, 3 Мбайт
    Продолжительность : 4 м. 52 с.
    Общий поток : 1585 Кбит/сек
    Дата кодирования : UTC 2011-07-22 19: 20: 19
    Дата пометки : UTC 2011-07-22 19: 20: 22
    Видео
    Идентификатор : 1
    Формат : AVC
    Формат/Информация : Advanced Video Codec
    Профиль формата : Baseline@L3
    Настройки формата : 1 Ref Frames
    Параметр CABAC формата : Нет
    Параметр RefFrames формата : 1 кадр
    Параметр GOP формата : M=1, N=120
    Идентификатор кодека : avc1
    Идентификатор кодека/Информация : Advanced Video Coding
    Продолжительность : 4 м. 52 с.
    Битрейт : 1479 Кбит/сек
    Ширина : 640 пикселей
    Высота : 360 пикселей
    Соотношение сторон : 16: 9
    Режим частоты кадров : Постоянный
    Частота кадров : 23, 976 (23976/1000) кадра/сек
    Цветовое пространство : YUV
    Субдискретизация насыщенности : 4: 2: 0
    Битовая глубина : 8 бит
    Тип развёртки : Прогрессивная
    Бит/(Пиксели*Кадры) : 0.268
    Размер потока : 51, 6 Мбайт (93%)
    Язык : English
    Дата кодирования : UTC 2011-07-22 19: 20: 19
    Дата пометки : UTC 2011-07-22 19: 20: 22
    Цветовой диапазон : Limited
    Основные цвета : BT.601 NTSC
    Характеристики трансфера : BT.709
    Коэффициенты матрицы : BT.601
    Аудио
    Идентификатор : 2
    Формат : AAC
    Формат/Информация : Advanced Audio Codec
    Профиль формата : LC
    Идентификатор кодека : mp4a-40-2
    Продолжительность : 4 м. 52 с.
    Продолжительность оригинала : 4 м. 52 с.
    Вид битрейта : Постоянный
    Битрейт : 103 Кбит/сек
    Номинальный битрейт : 128 Кбит/сек
    Каналы : 2 канала
    Расположение каналов : Front: L R
    Частота : 44, 1 КГц
    Частота кадров : 43, 066 кадра/сек (1024 SPF)
    Метод сжатия : С потерями
    Размер потока : 3, 61 Мбайт (7%)
    Размер потока оригинала : 3, 61 Мбайт (7%)
    Язык : English
    Дата кодирования : UTC 2011-07-22 19: 20: 19
    Дата пометки : UTC 2011-07-22 19: 20: 22
    Общее
    Полное имя : I: РазноеЗдоровьеTRXTRXTV - PowerWeek 3TRXTV_AUG11_Power2_Wk3_Tip.m4v
    Формат : MPEG-4
    Идентификатор кодека : M4V (M4V /M4A /mp42/isom)
    Размер файла : 42, 2 Мбайт
    Продолжительность : 3 м. 45 с.
    Общий поток : 1570 Кбит/сек
    Дата кодирования : UTC 2011-07-22 19: 43: 36
    Дата пометки : UTC 2011-07-22 19: 43: 38
    Видео
    Идентификатор : 1
    Формат : AVC
    Формат/Информация : Advanced Video Codec
    Профиль формата : Baseline@L3
    Настройки формата : 1 Ref Frames
    Параметр CABAC формата : Нет
    Параметр RefFrames формата : 1 кадр
    Параметр GOP формата : M=1, N=120
    Идентификатор кодека : avc1
    Идентификатор кодека/Информация : Advanced Video Coding
    Продолжительность : 3 м. 45 с.
    Битрейт : 1454 Кбит/сек
    Ширина : 640 пикселей
    Высота : 360 пикселей
    Соотношение сторон : 16: 9
    Режим частоты кадров : Постоянный
    Частота кадров : 23, 976 (23976/1000) кадра/сек
    Цветовое пространство : YUV
    Субдискретизация насыщенности : 4: 2: 0
    Битовая глубина : 8 бит
    Тип развёртки : Прогрессивная
    Бит/(Пиксели*Кадры) : 0.263
    Размер потока : 39, 1 Мбайт (93%)
    Язык : English
    Дата кодирования : UTC 2011-07-22 19: 43: 36
    Дата пометки : UTC 2011-07-22 19: 43: 38
    Цветовой диапазон : Limited
    Основные цвета : BT.601 NTSC
    Характеристики трансфера : BT.709
    Коэффициенты матрицы : BT.601
    Аудио
    Идентификатор : 2
    Формат : AAC
    Формат/Информация : Advanced Audio Codec
    Профиль формата : LC
    Идентификатор кодека : mp4a-40-2
    Продолжительность : 3 м. 45 с.
    Продолжительность оригинала : 3 м. 45 с.
    Вид битрейта : Постоянный
    Битрейт : 113 Кбит/сек
    Номинальный битрейт : 128 Кбит/сек
    Каналы : 2 канала
    Расположение каналов : Front: L R
    Частота : 44, 1 КГц
    Частота кадров : 43, 066 кадра/сек (1024 SPF)
    Метод сжатия : С потерями
    Размер потока : 3, 02 Мбайт (7%)
    Размер потока оригинала : 3, 02 Мбайт (7%)
    Язык : English
    Дата кодирования : UTC 2011-07-22 19: 43: 36
    Дата пометки : UTC 2011-07-22 19: 43: 38
    Общее
    Полное имя : I: РазноеЗдоровьеTRXTRXTV - PowerWeek 4TRXTV_AUG11_Power2_Wk4_Movement.m4v
    Формат : MPEG-4
    Идентификатор кодека : M4V (M4V /M4A /mp42/isom)
    Размер файла : 31, 5 Мбайт
    Продолжительность : 2 м. 46 с.
    Общий поток : 1592 Кбит/сек
    Дата кодирования : UTC 2011-07-22 19: 37: 57
    Дата пометки : UTC 2011-07-22 19: 37: 59
    Видео
    Идентификатор : 1
    Формат : AVC
    Формат/Информация : Advanced Video Codec
    Профиль формата : Baseline@L3
    Настройки формата : 1 Ref Frames
    Параметр CABAC формата : Нет
    Параметр RefFrames формата : 1 кадр
    Параметр GOP формата : M=1, N=120
    Идентификатор кодека : avc1
    Идентификатор кодека/Информация : Advanced Video Coding
    Продолжительность : 2 м. 46 с.
    Битрейт : 1479 Кбит/сек
    Ширина : 640 пикселей
    Высота : 360 пикселей
    Соотношение сторон : 16: 9
    Режим частоты кадров : Постоянный
    Частота кадров : 23, 976 (23976/1000) кадра/сек
    Цветовое пространство : YUV
    Субдискретизация насыщенности : 4: 2: 0
    Битовая глубина : 8 бит
    Тип развёртки : Прогрессивная
    Бит/(Пиксели*Кадры) : 0.268
    Размер потока : 29, 3 Мбайт (93%)
    Язык : English
    Дата кодирования : UTC 2011-07-22 19: 37: 57
    Дата пометки : UTC 2011-07-22 19: 37: 59
    Цветовой диапазон : Limited
    Основные цвета : BT.601 NTSC
    Характеристики трансфера : BT.709
    Коэффициенты матрицы : BT.601
    Аудио
    Идентификатор : 2
    Формат : AAC
    Формат/Информация : Advanced Audio Codec
    Профиль формата : LC
    Идентификатор кодека : mp4a-40-2
    Продолжительность : 2 м. 46 с.
    Продолжительность оригинала : 2 м. 46 с.
    Вид битрейта : Постоянный
    Битрейт : 109 Кбит/сек
    Номинальный битрейт : 128 Кбит/сек
    Каналы : 2 канала
    Расположение каналов : Front: L R
    Частота : 44, 1 КГц
    Частота кадров : 43, 066 кадра/сек (1024 SPF)
    Метод сжатия : С потерями
    Размер потока : 2, 16 Мбайт (7%)
    Размер потока оригинала : 2, 16 Мбайт (7%)
    Язык : English
    Дата кодирования : UTC 2011-07-22 19: 37: 57
    Дата пометки : UTC 2011-07-22 19: 37: 59
    Общее
    Полное имя : I: РазноеЗдоровьеTRXTRXTV - PowerWeek 4TRXTV_AUG11_Power2_Wk4_Sequence.m4v
    Формат : MPEG-4
    Идентификатор кодека : M4V (M4V /M4A /mp42/isom)
    Размер файла : 46, 9 Мбайт
    Продолжительность : 4 м. 5 с.
    Общий поток : 1604 Кбит/сек
    Дата кодирования : UTC 2011-07-22 19: 26: 41
    Дата пометки : UTC 2011-07-22 19: 26: 43
    Видео
    Идентификатор : 1
    Формат : AVC
    Формат/Информация : Advanced Video Codec
    Профиль формата : Baseline@L3
    Настройки формата : 1 Ref Frames
    Параметр CABAC формата : Нет
    Параметр RefFrames формата : 1 кадр
    Параметр GOP формата : M=1, N=120
    Идентификатор кодека : avc1
    Идентификатор кодека/Информация : Advanced Video Coding
    Продолжительность : 4 м. 5 с.
    Битрейт : 1490 Кбит/сек
    Ширина : 640 пикселей
    Высота : 360 пикселей
    Соотношение сторон : 16: 9
    Режим частоты кадров : Постоянный
    Частота кадров : 23, 976 (23976/1000) кадра/сек
    Цветовое пространство : YUV
    Субдискретизация насыщенности : 4: 2: 0
    Битовая глубина : 8 бит
    Тип развёртки : Прогрессивная
    Бит/(Пиксели*Кадры) : 0.270
    Размер потока : 43, 6 Мбайт (93%)
    Язык : English
    Дата кодирования : UTC 2011-07-22 19: 26: 41
    Дата пометки : UTC 2011-07-22 19: 26: 43
    Цветовой диапазон : Limited
    Основные цвета : BT.601 NTSC
    Характеристики трансфера : BT.709
    Коэффициенты матрицы : BT.601
    Аудио
    Идентификатор : 2
    Формат : AAC
    Формат/Информация : Advanced Audio Codec
    Профиль формата : LC
    Идентификатор кодека : mp4a-40-2
    Продолжительность : 4 м. 5 с.
    Продолжительность оригинала : 4 м. 5 с.
    Вид битрейта : Постоянный
    Битрейт : 110 Кбит/сек
    Номинальный битрейт : 128 Кбит/сек
    Каналы : 2 канала
    Расположение каналов : Front: L R
    Частота : 44, 1 КГц
    Частота кадров : 43, 066 кадра/сек (1024 SPF)
    Метод сжатия : С потерями
    Размер потока : 3, 23 Мбайт (7%)
    Размер потока оригинала : 3, 23 Мбайт (7%)
    Язык : English
    Дата кодирования : UTC 2011-07-22 19: 26: 41
    Дата пометки : UTC 2011-07-22 19: 26: 43
    Общее
    Полное имя : I: РазноеЗдоровьеTRXTRXTV - PowerWeek 4TRXTV_AUG11_Power2_Wk4_Tip.m4v
    Формат : MPEG-4
    Идентификатор кодека : M4V (M4V /M4A /mp42/isom)
    Размер файла : 37, 2 Мбайт
    Продолжительность : 3 м. 15 с.
    Общий поток : 1595 Кбит/сек
    Дата кодирования : UTC 2011-07-22 19: 48: 29
    Дата пометки : UTC 2011-07-22 19: 48: 30
    Видео
    Идентификатор : 1
    Формат : AVC
    Формат/Информация : Advanced Video Codec
    Профиль формата : Baseline@L3
    Настройки формата : 1 Ref Frames
    Параметр CABAC формата : Нет
    Параметр RefFrames формата : 1 кадр
    Параметр GOP формата : M=1, N=120
    Идентификатор кодека : avc1
    Идентификатор кодека/Информация : Advanced Video Coding
    Продолжительность : 3 м. 15 с.
    Битрейт : 1482 Кбит/сек
    Ширина : 640 пикселей
    Высота : 360 пикселей
    Соотношение сторон : 16: 9
    Режим частоты кадров : Постоянный
    Частота кадров : 23, 976 (23976/1000) кадра/сек
    Цветовое пространство : YUV
    Субдискретизация насыщенности : 4: 2: 0
    Битовая глубина : 8 бит
    Тип развёртки : Прогрессивная
    Бит/(Пиксели*Кадры) : 0.268
    Размер потока : 34, 5 Мбайт (93%)
    Язык : English
    Дата кодирования : UTC 2011-07-22 19: 48: 28
    Дата пометки : UTC 2011-07-22 19: 48: 30
    Цветовой диапазон : Limited
    Основные цвета : BT.601 NTSC
    Характеристики трансфера : BT.709
    Коэффициенты матрицы : BT.601
    Аудио
    Идентификатор : 2
    Формат : AAC
    Формат/Информация : Advanced Audio Codec
    Профиль формата : LC
    Идентификатор кодека : mp4a-40-2
    Продолжительность : 3 м. 15 с.
    Продолжительность оригинала : 3 м. 15 с.
    Вид битрейта : Постоянный
    Битрейт : 110 Кбит/сек
    Номинальный битрейт : 128 Кбит/сек
    Каналы : 2 канала
    Расположение каналов : Front: L R
    Частота : 44, 1 КГц
    Частота кадров : 43, 066 кадра/сек (1024 SPF)
    Метод сжатия : С потерями
    Размер потока : 2, 55 Мбайт (7%)
    Размер потока оригинала : 2, 55 Мбайт (7%)
    Язык : English
    Дата кодирования : UTC 2011-07-22 19: 48: 28
    Дата пометки : UTC 2011-07-22 19: 48: 30
    Скриншоты:


    Время раздачи: Круглосуточно (до появления первых 3-5 скачавших)


    TRX TV | Power (2011) WEB-DLRip [H.264][EN]
    Рейтинг →
     (голосов: 1, оценка 5/5, голосовать можно 1 раз )

    Другие торренты по теме:

  • Могучие рейнджеры / Power Rangers (2017) WEB-DLRip [H.264 / 1080p-LQ] [MVO] [AD]
  • Могучие рейнджеры / Power Rangers (2017) WEB-DLRip [MVO] [AD]
  • Могучие рейнджеры / Power Rangers (2017) WEB-DLRip [AD]
  • Могучие рейнджеры / Power Rangers (2017) WEB-DLRip [H.264] [MP4|640x352@852x352] [MVO] [AD]
  • Лига WatchCar. Битвы чемпионов / Power Battle WatchCar (2016-2017) WEB-DLRip [H.264 / 720p-LQ] (сезон 1-2, серии 1-35 из 52) [Обновляемая]
  • Дни Власти / Days of Power (2017) WEB-DLRip [MVO] [AD]
  • Лига Watchcar. Возвращение чемпиона / Power Battle WatchCar: Return of Watch Mask (2017) WEB-DLRip [H.264 / 720p-LQ]
  • TRX TV | Absolute Power (2011) WEB-DLRip [H.264][EN]


    • Комментарии (0):

      Информация

      Информация

        Посетители, находящиеся в группе Гости, не могут оставлять комментарии в данной новости.

        ↓ Меню




        ↓ Опрос

        Вы добавили сайт в закладки?
        Да
        Нет


        Top 10 за месяц (Книги)