.
Авторизация | Регистрация
Хочешь лучшие торренты? Добавь свой email!
Добавить

Торрент скачать бесплатно

  • support: webmaster@btracker.org
» » TRX TV | StayMobile (2011) WEB-DLRip [H.264][EN] торрент скачать бесплатно


    TRX TV | StayMobile (2011) WEB-DLRip [H.264][EN] торрент скачать бесплатно

    Опубликовал: Админ | Дата: 2-04-2018, 05:00 | .torrent скачали: 2

    TRX TV | StayMobile (2011) WEB-DLRip [H.264][EN]Автор (режиссер): TRX TV
    Производство: TRX TV
    Жанр: Функциональный тренинг

    Описание

    TRX TV - выпуск посвященный развитию баланса
    Продолжительность: 01: 05: 51
    Качество видео: WEB-DLRip
    Перевод: Отсутствует
    Язык озвучки: Английский
    Видео: AVC/H.264, 640х360, ~1451 Kbps
    Аудио: AAC, 2 ch, 128 Kbps

    Общее
    Полное имя : I: РазноеЗдоровьеTRXTRXTV - StayMobileTRXTV_SEPT11_StayMobile_Download.m4v
    Формат : MPEG-4
    Идентификатор кодека : M4V (M4V /M4A /mp42/isom)
    Размер файла : 357 Мбайт
    Продолжительность : 31 м. 27 с.
    Общий поток : 1584 Кбит/сек
    Дата кодирования : UTC 2011-08-19 21: 11: 15
    Дата пометки : UTC 2011-08-19 21: 11: 27
    Видео
    Идентификатор : 1
    Формат : AVC
    Формат/Информация : Advanced Video Codec
    Профиль формата : Baseline@L3
    Настройки формата : 1 Ref Frames
    Параметр CABAC формата : Нет
    Параметр RefFrames формата : 1 кадр
    Параметр GOP формата : M=1, N=120
    Идентификатор кодека : avc1
    Идентификатор кодека/Информация : Advanced Video Coding
    Продолжительность : 31 м. 27 с.
    Битрейт : 1451 Кбит/сек
    Ширина : 640 пикселей
    Высота : 360 пикселей
    Соотношение сторон : 16: 9
    Режим частоты кадров : Постоянный
    Частота кадров : 23, 976 (23976/1000) кадра/сек
    Цветовое пространство : YUV
    Субдискретизация насыщенности : 4: 2: 0
    Битовая глубина : 8 бит
    Тип развёртки : Прогрессивная
    Бит/(Пиксели*Кадры) : 0.263
    Размер потока : 326 Мбайт (92%)
    Язык : English
    Дата кодирования : UTC 2011-08-19 21: 11: 13
    Дата пометки : UTC 2011-08-19 21: 11: 27
    Цветовой диапазон : Limited
    Основные цвета : BT.601 NTSC
    Характеристики трансфера : BT.709
    Коэффициенты матрицы : BT.601
    Аудио
    Идентификатор : 2
    Формат : AAC
    Формат/Информация : Advanced Audio Codec
    Профиль формата : LC
    Идентификатор кодека : mp4a-40-2
    Продолжительность : 31 м. 27 с.
    Продолжительность оригинала : 31 м. 27 с.
    Вид битрейта : Постоянный
    Битрейт : 128 Кбит/сек
    Каналы : 2 канала
    Расположение каналов : Front: L R
    Частота : 44, 1 КГц
    Частота кадров : 43, 066 кадра/сек (1024 SPF)
    Метод сжатия : С потерями
    Размер потока : 29, 3 Мбайт (8%)
    Размер потока оригинала : 29, 3 Мбайт (8%)
    Язык : English
    Дата кодирования : UTC 2011-08-19 21: 11: 13
    Дата пометки : UTC 2011-08-19 21: 11: 27
    Общее
    Полное имя : I: РазноеЗдоровьеTRXTRXTV - StayMobileTRXTV_SEPT11_StayMobile_Download_PDF.pdf
    Формат : PDF
    Версия формата : 1.5
    Размер файла : 803 Кбайт
    Текст
    Формат : PDF
    Общее
    Полное имя : I: РазноеЗдоровьеTRXTRXTV - StayMobileWeek 1TRXTV_SEPT11_Mobility2_Wk1_Movement.m4v
    Формат : MPEG-4
    Идентификатор кодека : M4V (M4V /M4A /mp42/isom)
    Размер файла : 20, 1 Мбайт
    Продолжительность : 1 м. 48 с.
    Общий поток : 1556 Кбит/сек
    Дата кодирования : UTC 2011-08-19 19: 29: 55
    Дата пометки : UTC 2011-08-19 19: 29: 56
    Видео
    Идентификатор : 1
    Формат : AVC
    Формат/Информация : Advanced Video Codec
    Профиль формата : Baseline@L3
    Настройки формата : 1 Ref Frames
    Параметр CABAC формата : Нет
    Параметр RefFrames формата : 1 кадр
    Параметр GOP формата : M=1, N=120
    Идентификатор кодека : avc1
    Идентификатор кодека/Информация : Advanced Video Coding
    Продолжительность : 1 м. 48 с.
    Битрейт : 1460 Кбит/сек
    Ширина : 640 пикселей
    Высота : 360 пикселей
    Соотношение сторон : 16: 9
    Режим частоты кадров : Постоянный
    Частота кадров : 23, 976 (23976/1000) кадра/сек
    Цветовое пространство : YUV
    Субдискретизация насыщенности : 4: 2: 0
    Битовая глубина : 8 бит
    Тип развёртки : Прогрессивная
    Бит/(Пиксели*Кадры) : 0.264
    Размер потока : 18, 9 Мбайт (94%)
    Язык : English
    Дата кодирования : UTC 2011-08-19 19: 29: 55
    Дата пометки : UTC 2011-08-19 19: 29: 56
    Цветовой диапазон : Limited
    Основные цвета : BT.601 NTSC
    Характеристики трансфера : BT.709
    Коэффициенты матрицы : BT.601
    Аудио
    Идентификатор : 2
    Формат : AAC
    Формат/Информация : Advanced Audio Codec
    Профиль формата : LC
    Идентификатор кодека : mp4a-40-2
    Продолжительность : 1 м. 48 с.
    Продолжительность оригинала : 1 м. 48 с.
    Вид битрейта : Постоянный
    Битрейт : 93, 0 Кбит/сек
    Номинальный битрейт : 128 Кбит/сек
    Каналы : 2 канала
    Расположение каналов : Front: L R
    Частота : 44, 1 КГц
    Частота кадров : 43, 066 кадра/сек (1024 SPF)
    Метод сжатия : С потерями
    Размер потока : 1, 20 Мбайт (6%)
    Размер потока оригинала : 1, 20 Мбайт (6%)
    Язык : English
    Дата кодирования : UTC 2011-08-19 19: 29: 55
    Дата пометки : UTC 2011-08-19 19: 29: 56
    Общее
    Полное имя : I: РазноеЗдоровьеTRXTRXTV - StayMobileWeek 1TRXTV_SEPT11_Mobility2_Wk1_Sequence.m4v
    Формат : MPEG-4
    Идентификатор кодека : M4V (M4V /M4A /mp42/isom)
    Размер файла : 35, 6 Мбайт
    Продолжительность : 3 м. 8 с.
    Общий поток : 1583 Кбит/сек
    Дата кодирования : UTC 2011-08-19 19: 54: 04
    Дата пометки : UTC 2011-08-19 19: 54: 05
    Видео
    Идентификатор : 1
    Формат : AVC
    Формат/Информация : Advanced Video Codec
    Профиль формата : Baseline@L3
    Настройки формата : 1 Ref Frames
    Параметр CABAC формата : Нет
    Параметр RefFrames формата : 1 кадр
    Параметр GOP формата : M=1, N=120
    Идентификатор кодека : avc1
    Идентификатор кодека/Информация : Advanced Video Coding
    Продолжительность : 3 м. 8 с.
    Битрейт : 1480 Кбит/сек
    Ширина : 640 пикселей
    Высота : 360 пикселей
    Соотношение сторон : 16: 9
    Режим частоты кадров : Постоянный
    Частота кадров : 23, 976 (23976/1000) кадра/сек
    Цветовое пространство : YUV
    Субдискретизация насыщенности : 4: 2: 0
    Битовая глубина : 8 бит
    Тип развёртки : Прогрессивная
    Бит/(Пиксели*Кадры) : 0.268
    Размер потока : 33, 3 Мбайт (94%)
    Язык : English
    Дата кодирования : UTC 2011-08-19 19: 54: 04
    Дата пометки : UTC 2011-08-19 19: 54: 05
    Цветовой диапазон : Limited
    Основные цвета : BT.601 NTSC
    Характеристики трансфера : BT.709
    Коэффициенты матрицы : BT.601
    Аудио
    Идентификатор : 2
    Формат : AAC
    Формат/Информация : Advanced Audio Codec
    Профиль формата : LC
    Идентификатор кодека : mp4a-40-2
    Продолжительность : 3 м. 8 с.
    Продолжительность оригинала : 3 м. 8 с.
    Вид битрейта : Постоянный
    Битрейт : 99, 4 Кбит/сек
    Номинальный битрейт : 128 Кбит/сек
    Каналы : 2 канала
    Расположение каналов : Front: L R
    Частота : 44, 1 КГц
    Частота кадров : 43, 066 кадра/сек (1024 SPF)
    Метод сжатия : С потерями
    Размер потока : 2, 23 Мбайт (6%)
    Размер потока оригинала : 2, 23 Мбайт (6%)
    Язык : English
    Дата кодирования : UTC 2011-08-19 19: 54: 04
    Дата пометки : UTC 2011-08-19 19: 54: 05
    Общее
    Полное имя : I: РазноеЗдоровьеTRXTRXTV - StayMobileWeek 1TRXTV_SEPT11_Mobility2_Wk1_Tip.m4v
    Формат : MPEG-4
    Идентификатор кодека : M4V (M4V /M4A /mp42/isom)
    Размер файла : 24, 8 Мбайт
    Продолжительность : 2 м. 13 с.
    Общий поток : 1557 Кбит/сек
    Дата кодирования : UTC 2011-08-19 19: 38: 34
    Дата пометки : UTC 2011-08-19 19: 38: 35
    Видео
    Идентификатор : 1
    Формат : AVC
    Формат/Информация : Advanced Video Codec
    Профиль формата : Baseline@L3
    Настройки формата : 1 Ref Frames
    Параметр CABAC формата : Нет
    Параметр RefFrames формата : 1 кадр
    Параметр GOP формата : M=1, N=120
    Идентификатор кодека : avc1
    Идентификатор кодека/Информация : Advanced Video Coding
    Продолжительность : 2 м. 13 с.
    Битрейт : 1457 Кбит/сек
    Ширина : 640 пикселей
    Высота : 360 пикселей
    Соотношение сторон : 16: 9
    Режим частоты кадров : Постоянный
    Частота кадров : 23, 976 (23976/1000) кадра/сек
    Цветовое пространство : YUV
    Субдискретизация насыщенности : 4: 2: 0
    Битовая глубина : 8 бит
    Тип развёртки : Прогрессивная
    Бит/(Пиксели*Кадры) : 0.264
    Размер потока : 23, 2 Мбайт (94%)
    Язык : English
    Дата кодирования : UTC 2011-08-19 19: 38: 34
    Дата пометки : UTC 2011-08-19 19: 38: 35
    Цветовой диапазон : Limited
    Основные цвета : BT.601 NTSC
    Характеристики трансфера : BT.709
    Коэффициенты матрицы : BT.601
    Аудио
    Идентификатор : 2
    Формат : AAC
    Формат/Информация : Advanced Audio Codec
    Профиль формата : LC
    Идентификатор кодека : mp4a-40-2
    Продолжительность : 2 м. 13 с.
    Продолжительность оригинала : 2 м. 13 с.
    Вид битрейта : Постоянный
    Битрейт : 96, 0 Кбит/сек
    Номинальный битрейт : 128 Кбит/сек
    Каналы : 2 канала
    Расположение каналов : Front: L R
    Частота : 44, 1 КГц
    Частота кадров : 43, 066 кадра/сек (1024 SPF)
    Метод сжатия : С потерями
    Размер потока : 1, 54 Мбайт (6%)
    Размер потока оригинала : 1, 54 Мбайт (6%)
    Язык : English
    Дата кодирования : UTC 2011-08-19 19: 38: 34
    Дата пометки : UTC 2011-08-19 19: 38: 35
    Общее
    Полное имя : I: РазноеЗдоровьеTRXTRXTV - StayMobileWeek 2TRXTV_SEPT11_Mobility2_Wk2_Movement.m4v
    Формат : MPEG-4
    Идентификатор кодека : M4V (M4V /M4A /mp42/isom)
    Размер файла : 18, 8 Мбайт
    Продолжительность : 1 м. 35 с.
    Общий поток : 1650 Кбит/сек
    Дата кодирования : UTC 2011-08-19 19: 31: 10
    Дата пометки : UTC 2011-08-19 19: 31: 11
    Видео
    Идентификатор : 1
    Формат : AVC
    Формат/Информация : Advanced Video Codec
    Профиль формата : Baseline@L3
    Настройки формата : 1 Ref Frames
    Параметр CABAC формата : Нет
    Параметр RefFrames формата : 1 кадр
    Параметр GOP формата : M=1, N=120
    Идентификатор кодека : avc1
    Идентификатор кодека/Информация : Advanced Video Coding
    Продолжительность : 1 м. 35 с.
    Битрейт : 1556 Кбит/сек
    Ширина : 640 пикселей
    Высота : 360 пикселей
    Соотношение сторон : 16: 9
    Режим частоты кадров : Постоянный
    Частота кадров : 23, 976 (23976/1000) кадра/сек
    Цветовое пространство : YUV
    Субдискретизация насыщенности : 4: 2: 0
    Битовая глубина : 8 бит
    Тип развёртки : Прогрессивная
    Бит/(Пиксели*Кадры) : 0.282
    Размер потока : 17, 7 Мбайт (94%)
    Язык : English
    Дата кодирования : UTC 2011-08-19 19: 31: 10
    Дата пометки : UTC 2011-08-19 19: 31: 11
    Цветовой диапазон : Limited
    Основные цвета : BT.601 NTSC
    Характеристики трансфера : BT.709
    Коэффициенты матрицы : BT.601
    Аудио
    Идентификатор : 2
    Формат : AAC
    Формат/Информация : Advanced Audio Codec
    Профиль формата : LC
    Идентификатор кодека : mp4a-40-2
    Продолжительность : 1 м. 35 с.
    Продолжительность оригинала : 1 м. 35 с.
    Вид битрейта : Постоянный
    Битрейт : 90, 5 Кбит/сек
    Номинальный битрейт : 128 Кбит/сек
    Каналы : 2 канала
    Расположение каналов : Front: L R
    Частота : 44, 1 КГц
    Частота кадров : 43, 066 кадра/сек (1024 SPF)
    Метод сжатия : С потерями
    Размер потока : 1, 03 Мбайт (5%)
    Размер потока оригинала : 1, 03 Мбайт (5%)
    Язык : English
    Дата кодирования : UTC 2011-08-19 19: 31: 10
    Дата пометки : UTC 2011-08-19 19: 31: 11
    Общее
    Полное имя : I: РазноеЗдоровьеTRXTRXTV - StayMobileWeek 2TRXTV_SEPT11_Mobility2_Wk2_Sequence.m4v
    Формат : MPEG-4
    Идентификатор кодека : M4V (M4V /M4A /mp42/isom)
    Размер файла : 37, 8 Мбайт
    Продолжительность : 3 м. 19 с.
    Общий поток : 1589 Кбит/сек
    Дата кодирования : UTC 2011-08-19 19: 59: 12
    Дата пометки : UTC 2011-08-19 19: 59: 14
    Видео
    Идентификатор : 1
    Формат : AVC
    Формат/Информация : Advanced Video Codec
    Профиль формата : Baseline@L3
    Настройки формата : 1 Ref Frames
    Параметр CABAC формата : Нет
    Параметр RefFrames формата : 1 кадр
    Параметр GOP формата : M=1, N=120
    Идентификатор кодека : avc1
    Идентификатор кодека/Информация : Advanced Video Coding
    Продолжительность : 3 м. 19 с.
    Битрейт : 1486 Кбит/сек
    Ширина : 640 пикселей
    Высота : 360 пикселей
    Соотношение сторон : 16: 9
    Режим частоты кадров : Постоянный
    Частота кадров : 23, 976 (23976/1000) кадра/сек
    Цветовое пространство : YUV
    Субдискретизация насыщенности : 4: 2: 0
    Битовая глубина : 8 бит
    Тип развёртки : Прогрессивная
    Бит/(Пиксели*Кадры) : 0.269
    Размер потока : 35, 4 Мбайт (94%)
    Язык : English
    Дата кодирования : UTC 2011-08-19 19: 59: 12
    Дата пометки : UTC 2011-08-19 19: 59: 14
    Цветовой диапазон : Limited
    Основные цвета : BT.601 NTSC
    Характеристики трансфера : BT.709
    Коэффициенты матрицы : BT.601
    Аудио
    Идентификатор : 2
    Формат : AAC
    Формат/Информация : Advanced Audio Codec
    Профиль формата : LC
    Идентификатор кодека : mp4a-40-2
    Продолжительность : 3 м. 19 с.
    Продолжительность оригинала : 3 м. 19 с.
    Вид битрейта : Постоянный
    Битрейт : 99, 0 Кбит/сек
    Номинальный битрейт : 128 Кбит/сек
    Каналы : 2 канала
    Расположение каналов : Front: L R
    Частота : 44, 1 КГц
    Частота кадров : 43, 066 кадра/сек (1024 SPF)
    Метод сжатия : С потерями
    Размер потока : 2, 36 Мбайт (6%)
    Размер потока оригинала : 2, 36 Мбайт (6%)
    Язык : English
    Дата кодирования : UTC 2011-08-19 19: 59: 12
    Дата пометки : UTC 2011-08-19 19: 59: 14
    Общее
    Полное имя : I: РазноеЗдоровьеTRXTRXTV - StayMobileWeek 2TRXTV_SEPT11_Mobility2_Wk2_Tip.m4v
    Формат : MPEG-4
    Идентификатор кодека : M4V (M4V /M4A /mp42/isom)
    Размер файла : 17, 4 Мбайт
    Продолжительность : 1 м. 27 с.
    Общий поток : 1670 Кбит/сек
    Дата кодирования : UTC 2011-08-19 19: 39: 41
    Дата пометки : UTC 2011-08-19 19: 39: 41
    Видео
    Идентификатор : 1
    Формат : AVC
    Формат/Информация : Advanced Video Codec
    Профиль формата : Baseline@L3
    Настройки формата : 1 Ref Frames
    Параметр CABAC формата : Нет
    Параметр RefFrames формата : 1 кадр
    Параметр GOP формата : M=1, N=120
    Идентификатор кодека : avc1
    Идентификатор кодека/Информация : Advanced Video Coding
    Продолжительность : 1 м. 27 с.
    Битрейт : 1577 Кбит/сек
    Ширина : 640 пикселей
    Высота : 360 пикселей
    Соотношение сторон : 16: 9
    Режим частоты кадров : Постоянный
    Частота кадров : 23, 976 (23976/1000) кадра/сек
    Цветовое пространство : YUV
    Субдискретизация насыщенности : 4: 2: 0
    Битовая глубина : 8 бит
    Тип развёртки : Прогрессивная
    Бит/(Пиксели*Кадры) : 0.286
    Размер потока : 16, 4 Мбайт (94%)
    Язык : English
    Дата кодирования : UTC 2011-08-19 19: 39: 40
    Дата пометки : UTC 2011-08-19 19: 39: 41
    Цветовой диапазон : Limited
    Основные цвета : BT.601 NTSC
    Характеристики трансфера : BT.709
    Коэффициенты матрицы : BT.601
    Аудио
    Идентификатор : 2
    Формат : AAC
    Формат/Информация : Advanced Audio Codec
    Профиль формата : LC
    Идентификатор кодека : mp4a-40-2
    Продолжительность : 1 м. 27 с.
    Продолжительность оригинала : 1 м. 27 с.
    Вид битрейта : Постоянный
    Битрейт : 88, 8 Кбит/сек
    Номинальный битрейт : 128 Кбит/сек
    Каналы : 2 канала
    Расположение каналов : Front: L R
    Частота : 44, 1 КГц
    Частота кадров : 43, 066 кадра/сек (1024 SPF)
    Метод сжатия : С потерями
    Размер потока : 946 Кбайт (5%)
    Размер потока оригинала : 946 Кбайт (5%)
    Язык : English
    Дата кодирования : UTC 2011-08-19 19: 39: 40
    Дата пометки : UTC 2011-08-19 19: 39: 41
    Общее
    Полное имя : I: РазноеЗдоровьеTRXTRXTV - StayMobileWeek 3TRXTV_SEPT11_Mobility2_Wk4_Movement.m4v
    Формат : MPEG-4
    Идентификатор кодека : M4V (M4V /M4A /mp42/isom)
    Размер файла : 17, 8 Мбайт
    Продолжительность : 1 м. 36 с.
    Общий поток : 1549 Кбит/сек
    Дата кодирования : UTC 2011-08-19 19: 35: 03
    Дата пометки : UTC 2011-08-19 19: 35: 04
    Видео
    Идентификатор : 1
    Формат : AVC
    Формат/Информация : Advanced Video Codec
    Профиль формата : Baseline@L3
    Настройки формата : 1 Ref Frames
    Параметр CABAC формата : Нет
    Параметр RefFrames формата : 1 кадр
    Параметр GOP формата : M=1, N=120
    Идентификатор кодека : avc1
    Идентификатор кодека/Информация : Advanced Video Coding
    Продолжительность : 1 м. 36 с.
    Битрейт : 1454 Кбит/сек
    Ширина : 640 пикселей
    Высота : 360 пикселей
    Соотношение сторон : 16: 9
    Режим частоты кадров : Постоянный
    Частота кадров : 23, 976 (23976/1000) кадра/сек
    Цветовое пространство : YUV
    Субдискретизация насыщенности : 4: 2: 0
    Битовая глубина : 8 бит
    Тип развёртки : Прогрессивная
    Бит/(Пиксели*Кадры) : 0.263
    Размер потока : 16, 8 Мбайт (94%)
    Язык : English
    Дата кодирования : UTC 2011-08-19 19: 35: 03
    Дата пометки : UTC 2011-08-19 19: 35: 04
    Цветовой диапазон : Limited
    Основные цвета : BT.601 NTSC
    Характеристики трансфера : BT.709
    Коэффициенты матрицы : BT.601
    Аудио
    Идентификатор : 2
    Формат : AAC
    Формат/Информация : Advanced Audio Codec
    Профиль формата : LC
    Идентификатор кодека : mp4a-40-2
    Продолжительность : 1 м. 36 с.
    Продолжительность оригинала : 1 м. 36 с.
    Вид битрейта : Постоянный
    Битрейт : 90, 7 Кбит/сек
    Номинальный битрейт : 128 Кбит/сек
    Каналы : 2 канала
    Расположение каналов : Front: L R
    Частота : 44, 1 КГц
    Частота кадров : 43, 066 кадра/сек (1024 SPF)
    Метод сжатия : С потерями
    Размер потока : 1, 05 Мбайт (6%)
    Размер потока оригинала : 1, 05 Мбайт (6%)
    Язык : English
    Дата кодирования : UTC 2011-08-19 19: 35: 03
    Дата пометки : UTC 2011-08-19 19: 35: 04
    Общее
    Полное имя : I: РазноеЗдоровьеTRXTRXTV - StayMobileWeek 3TRXTV_SEPT11_Mobility2_Wk4_Sequence.m4v
    Формат : MPEG-4
    Идентификатор кодека : M4V (M4V /M4A /mp42/isom)
    Размер файла : 43, 4 Мбайт
    Продолжительность : 3 м. 51 с.
    Общий поток : 1573 Кбит/сек
    Дата кодирования : UTC 2011-08-19 20: 09: 33
    Дата пометки : UTC 2011-08-19 20: 09: 35
    Видео
    Идентификатор : 1
    Формат : AVC
    Формат/Информация : Advanced Video Codec
    Профиль формата : Baseline@L3
    Настройки формата : 1 Ref Frames
    Параметр CABAC формата : Нет
    Параметр RefFrames формата : 1 кадр
    Параметр GOP формата : M=1, N=120
    Идентификатор кодека : avc1
    Идентификатор кодека/Информация : Advanced Video Coding
    Продолжительность : 3 м. 51 с.
    Битрейт : 1468 Кбит/сек
    Ширина : 640 пикселей
    Высота : 360 пикселей
    Соотношение сторон : 16: 9
    Режим частоты кадров : Постоянный
    Частота кадров : 23, 976 (23976/1000) кадра/сек
    Цветовое пространство : YUV
    Субдискретизация насыщенности : 4: 2: 0
    Битовая глубина : 8 бит
    Тип развёртки : Прогрессивная
    Бит/(Пиксели*Кадры) : 0.266
    Размер потока : 40, 5 Мбайт (93%)
    Язык : English
    Дата кодирования : UTC 2011-08-19 20: 09: 33
    Дата пометки : UTC 2011-08-19 20: 09: 35
    Цветовой диапазон : Limited
    Основные цвета : BT.601 NTSC
    Характеристики трансфера : BT.709
    Коэффициенты матрицы : BT.601
    Аудио
    Идентификатор : 2
    Формат : AAC
    Формат/Информация : Advanced Audio Codec
    Профиль формата : LC
    Идентификатор кодека : mp4a-40-2
    Продолжительность : 3 м. 51 с.
    Продолжительность оригинала : 3 м. 51 с.
    Вид битрейта : Постоянный
    Битрейт : 102 Кбит/сек
    Номинальный битрейт : 128 Кбит/сек
    Каналы : 2 канала
    Расположение каналов : Front: L R
    Частота : 44, 1 КГц
    Частота кадров : 43, 066 кадра/сек (1024 SPF)
    Метод сжатия : С потерями
    Размер потока : 2, 82 Мбайт (6%)
    Размер потока оригинала : 2, 82 Мбайт (6%)
    Язык : English
    Дата кодирования : UTC 2011-08-19 20: 09: 33
    Дата пометки : UTC 2011-08-19 20: 09: 35
    Общее
    Полное имя : I: РазноеЗдоровьеTRXTRXTV - StayMobileWeek 3TRXTV_SEPT11_Mobility2_Wk4_Tip.m4v
    Формат : MPEG-4
    Идентификатор кодека : M4V (M4V /M4A /mp42/isom)
    Размер файла : 19, 5 Мбайт
    Продолжительность : 1 м. 46 с.
    Общий поток : 1543 Кбит/сек
    Дата кодирования : UTC 2011-08-19 19: 48: 00
    Дата пометки : UTC 2011-08-19 19: 48: 01
    Видео
    Идентификатор : 1
    Формат : AVC
    Формат/Информация : Advanced Video Codec
    Профиль формата : Baseline@L3
    Настройки формата : 1 Ref Frames
    Параметр CABAC формата : Нет
    Параметр RefFrames формата : 1 кадр
    Параметр GOP формата : M=1, N=120
    Идентификатор кодека : avc1
    Идентификатор кодека/Информация : Advanced Video Coding
    Продолжительность : 1 м. 46 с.
    Битрейт : 1442 Кбит/сек
    Ширина : 640 пикселей
    Высота : 360 пикселей
    Соотношение сторон : 16: 9
    Режим частоты кадров : Постоянный
    Частота кадров : 23, 976 (23976/1000) кадра/сек
    Цветовое пространство : YUV
    Субдискретизация насыщенности : 4: 2: 0
    Битовая глубина : 8 бит
    Тип развёртки : Прогрессивная
    Бит/(Пиксели*Кадры) : 0.261
    Размер потока : 18, 2 Мбайт (93%)
    Язык : English
    Дата кодирования : UTC 2011-08-19 19: 48: 00
    Дата пометки : UTC 2011-08-19 19: 48: 01
    Цветовой диапазон : Limited
    Основные цвета : BT.601 NTSC
    Характеристики трансфера : BT.709
    Коэффициенты матрицы : BT.601
    Аудио
    Идентификатор : 2
    Формат : AAC
    Формат/Информация : Advanced Audio Codec
    Профиль формата : LC
    Идентификатор кодека : mp4a-40-2
    Продолжительность : 1 м. 46 с.
    Продолжительность оригинала : 1 м. 46 с.
    Вид битрейта : Постоянный
    Битрейт : 96, 0 Кбит/сек
    Номинальный битрейт : 128 Кбит/сек
    Каналы : 2 канала
    Расположение каналов : Front: L R
    Частота : 44, 1 КГц
    Частота кадров : 43, 066 кадра/сек (1024 SPF)
    Метод сжатия : С потерями
    Размер потока : 1, 24 Мбайт (6%)
    Размер потока оригинала : 1, 24 Мбайт (6%)
    Язык : English
    Дата кодирования : UTC 2011-08-19 19: 48: 00
    Дата пометки : UTC 2011-08-19 19: 48: 01
    Общее
    Полное имя : I: РазноеЗдоровьеTRXTRXTV - StayMobileWeek 4TRXTV_SEPT11_Mobility2_Wk3_Movement.m4v
    Формат : MPEG-4
    Идентификатор кодека : M4V (M4V /M4A /mp42/isom)
    Размер файла : 19, 3 Мбайт
    Продолжительность : 1 м. 41 с.
    Общий поток : 1604 Кбит/сек
    Дата кодирования : UTC 2011-08-19 19: 32: 29
    Дата пометки : UTC 2011-08-19 19: 32: 30
    Видео
    Идентификатор : 1
    Формат : AVC
    Формат/Информация : Advanced Video Codec
    Профиль формата : Baseline@L3
    Настройки формата : 1 Ref Frames
    Параметр CABAC формата : Нет
    Параметр RefFrames формата : 1 кадр
    Параметр GOP формата : M=1, N=120
    Идентификатор кодека : avc1
    Идентификатор кодека/Информация : Advanced Video Coding
    Продолжительность : 1 м. 41 с.
    Битрейт : 1509 Кбит/сек
    Ширина : 640 пикселей
    Высота : 360 пикселей
    Соотношение сторон : 16: 9
    Режим частоты кадров : Постоянный
    Частота кадров : 23, 976 (23976/1000) кадра/сек
    Цветовое пространство : YUV
    Субдискретизация насыщенности : 4: 2: 0
    Битовая глубина : 8 бит
    Тип развёртки : Прогрессивная
    Бит/(Пиксели*Кадры) : 0.273
    Размер потока : 18, 2 Мбайт (94%)
    Язык : English
    Дата кодирования : UTC 2011-08-19 19: 32: 29
    Дата пометки : UTC 2011-08-19 19: 32: 30
    Цветовой диапазон : Limited
    Основные цвета : BT.601 NTSC
    Характеристики трансфера : BT.709
    Коэффициенты матрицы : BT.601
    Аудио
    Идентификатор : 2
    Формат : AAC
    Формат/Информация : Advanced Audio Codec
    Профиль формата : LC
    Идентификатор кодека : mp4a-40-2
    Продолжительность : 1 м. 41 с.
    Продолжительность оригинала : 1 м. 41 с.
    Вид битрейта : Постоянный
    Битрейт : 91, 4 Кбит/сек
    Номинальный битрейт : 128 Кбит/сек
    Каналы : 2 канала
    Расположение каналов : Front: L R
    Частота : 44, 1 КГц
    Частота кадров : 43, 066 кадра/сек (1024 SPF)
    Метод сжатия : С потерями
    Размер потока : 1, 10 Мбайт (6%)
    Размер потока оригинала : 1, 10 Мбайт (6%)
    Язык : English
    Дата кодирования : UTC 2011-08-19 19: 32: 29
    Дата пометки : UTC 2011-08-19 19: 32: 30
    Общее
    Полное имя : I: РазноеЗдоровьеTRXTRXTV - StayMobileWeek 4TRXTV_SEPT11_Mobility2_Wk3_Sequence.m4v
    Формат : MPEG-4
    Идентификатор кодека : M4V (M4V /M4A /mp42/isom)
    Размер файла : 42, 6 Мбайт
    Продолжительность : 3 м. 34 с.
    Общий поток : 1664 Кбит/сек
    Дата кодирования : UTC 2011-08-19 20: 01: 59
    Дата пометки : UTC 2011-08-19 20: 02: 01
    Видео
    Идентификатор : 1
    Формат : AVC
    Формат/Информация : Advanced Video Codec
    Профиль формата : Baseline@L3
    Настройки формата : 1 Ref Frames
    Параметр CABAC формата : Нет
    Параметр RefFrames формата : 1 кадр
    Параметр GOP формата : M=1, N=120
    Идентификатор кодека : avc1
    Идентификатор кодека/Информация : Advanced Video Coding
    Продолжительность : 3 м. 34 с.
    Битрейт : 1553 Кбит/сек
    Ширина : 640 пикселей
    Высота : 360 пикселей
    Соотношение сторон : 16: 9
    Режим частоты кадров : Постоянный
    Частота кадров : 23, 976 (23976/1000) кадра/сек
    Цветовое пространство : YUV
    Субдискретизация насыщенности : 4: 2: 0
    Битовая глубина : 8 бит
    Тип развёртки : Прогрессивная
    Бит/(Пиксели*Кадры) : 0.281
    Размер потока : 39, 8 Мбайт (93%)
    Язык : English
    Дата кодирования : UTC 2011-08-19 20: 01: 59
    Дата пометки : UTC 2011-08-19 20: 02: 01
    Цветовой диапазон : Limited
    Основные цвета : BT.601 NTSC
    Характеристики трансфера : BT.709
    Коэффициенты матрицы : BT.601
    Аудио
    Идентификатор : 2
    Формат : AAC
    Формат/Информация : Advanced Audio Codec
    Профиль формата : LC
    Идентификатор кодека : mp4a-40-2
    Продолжительность : 3 м. 34 с.
    Продолжительность оригинала : 3 м. 34 с.
    Вид битрейта : Постоянный
    Битрейт : 108 Кбит/сек
    Номинальный битрейт : 128 Кбит/сек
    Каналы : 2 канала
    Расположение каналов : Front: L R
    Частота : 44, 1 КГц
    Частота кадров : 43, 066 кадра/сек (1024 SPF)
    Метод сжатия : С потерями
    Размер потока : 2, 75 Мбайт (6%)
    Размер потока оригинала : 2, 75 Мбайт (6%)
    Язык : English
    Дата кодирования : UTC 2011-08-19 20: 01: 59
    Дата пометки : UTC 2011-08-19 20: 02: 01
    Общее
    Полное имя : I: РазноеЗдоровьеTRXTRXTV - StayMobileWeek 4TRXTV_SEPT11_Mobility2_Wk3_Tip.m4v
    Формат : MPEG-4
    Идентификатор кодека : M4V (M4V /M4A /mp42/isom)
    Размер файла : 16, 0 Мбайт
    Продолжительность : 1 м. 27 с.
    Общий поток : 1538 Кбит/сек
    Дата кодирования : UTC 2011-08-19 19: 45: 21
    Дата пометки : UTC 2011-08-19 19: 45: 22
    Видео
    Идентификатор : 1
    Формат : AVC
    Формат/Информация : Advanced Video Codec
    Профиль формата : Baseline@L3
    Настройки формата : 1 Ref Frames
    Параметр CABAC формата : Нет
    Параметр RefFrames формата : 1 кадр
    Параметр GOP формата : M=1, N=120
    Идентификатор кодека : avc1
    Идентификатор кодека/Информация : Advanced Video Coding
    Продолжительность : 1 м. 27 с.
    Битрейт : 1445 Кбит/сек
    Ширина : 640 пикселей
    Высота : 360 пикселей
    Соотношение сторон : 16: 9
    Режим частоты кадров : Постоянный
    Частота кадров : 23, 976 (23976/1000) кадра/сек
    Цветовое пространство : YUV
    Субдискретизация насыщенности : 4: 2: 0
    Битовая глубина : 8 бит
    Тип развёртки : Прогрессивная
    Бит/(Пиксели*Кадры) : 0.262
    Размер потока : 15, 0 Мбайт (94%)
    Язык : English
    Дата кодирования : UTC 2011-08-19 19: 45: 21
    Дата пометки : UTC 2011-08-19 19: 45: 22
    Цветовой диапазон : Limited
    Основные цвета : BT.601 NTSC
    Характеристики трансфера : BT.709
    Коэффициенты матрицы : BT.601
    Аудио
    Идентификатор : 2
    Формат : AAC
    Формат/Информация : Advanced Audio Codec
    Профиль формата : LC
    Идентификатор кодека : mp4a-40-2
    Продолжительность : 1 м. 27 с.
    Продолжительность оригинала : 1 м. 27 с.
    Вид битрейта : Постоянный
    Битрейт : 88, 8 Кбит/сек
    Номинальный битрейт : 128 Кбит/сек
    Каналы : 2 канала
    Расположение каналов : Front: L R
    Частота : 44, 1 КГц
    Частота кадров : 43, 066 кадра/сек (1024 SPF)
    Метод сжатия : С потерями
    Размер потока : 944 Кбайт (6%)
    Размер потока оригинала : 944 Кбайт (6%)
    Язык : English
    Дата кодирования : UTC 2011-08-19 19: 45: 21
    Дата пометки : UTC 2011-08-19 19: 45: 22
    Скриншоты:


    Время раздачи: Круглосуточно (до появления первых 3-5 скачавших)


    TRX TV | StayMobile (2011) WEB-DLRip [H.264][EN]
    Рейтинг →
     (голосов: 1, оценка 5/5, голосовать можно 1 раз )

    Другие торренты по теме:



      Комментарии (0):

      Информация

      Информация

        Посетители, находящиеся в группе Гости, не могут оставлять комментарии в данной новости.

        ↓ Меню




        ↓ Опрос

        Вы добавили сайт в закладки?
        Да
        Нет


        Top 10 за месяц (Книги)