.
Авторизация | Регистрация
Хочешь лучшие торренты? Добавь свой email!
Добавить

Торрент скачать бесплатно

» » TRX TV | Get Mobile (2011) WEB-DLRip [H.264][EN] торрент скачать бесплатно


    TRX TV | Get Mobile (2011) WEB-DLRip [H.264][EN] торрент скачать бесплатно

    Опубликовал: Админ | Дата: 2-04-2018, 05:00 | .torrent скачали: 1

    TRX TV | Get Mobile (2011) WEB-DLRip [H.264][EN]Автор (режиссер): TRX TV
    Производство: TRX TV
    Жанр: Функциональный тренинг

    Описание

    TRX TV - выпуск посвященный развитию стабилизации
    Продолжительность: 01: 21: 10
    Качество видео: WEB-DLRip
    Перевод: Отсутствует
    Язык озвучки: Английский
    Видео: AVC/H.264, 640X360, ~1455 Kbps
    Аудио: AAC, 2 ch, 128 Kbps

    Общее
    Полное имя : I: РазноеЗдоровьеTRXTRXTV - Get MobileTRXTV_Jan11_GetMobile_VisualGuide.pdf
    Формат : PDF
    Версия формата : 1.3
    Размер файла : 4, 44 Мбайт
    Текст
    Формат : PDF
    Общее
    Полное имя : I: РазноеЗдоровьеTRXTRXTV - Get MobileTRXTV_Jan11_GetMobile_Workout.m4v
    Формат : MPEG-4
    Идентификатор кодека : M4V (M4V /M4A /mp42/isom)
    Размер файла : 406 Мбайт
    Продолжительность : 35 м. 52 с.
    Режим общего битрейта : Переменный
    Общий поток : 1583 Кбит/сек
    Дата кодирования : UTC 2010-12-22 00: 32: 19
    Дата пометки : UTC 2010-12-22 00: 32: 46
    Видео
    Идентификатор : 2
    Формат : AVC
    Формат/Информация : Advanced Video Codec
    Профиль формата : Baseline@L3
    Настройки формата : 1 Ref Frames
    Параметр CABAC формата : Нет
    Параметр RefFrames формата : 1 кадр
    Параметр GOP формата : M=1, N=120
    Идентификатор кодека : avc1
    Идентификатор кодека/Информация : Advanced Video Coding
    Продолжительность : 35 м. 52 с.
    Битрейт : 1455 Кбит/сек
    Ширина : 640 пикселей
    Высота : 360 пикселей
    Соотношение сторон : 16: 9
    Режим частоты кадров : Постоянный
    Частота кадров : 23, 976 (23976/1000) кадра/сек
    Цветовое пространство : YUV
    Субдискретизация насыщенности : 4: 2: 0
    Битовая глубина : 8 бит
    Тип развёртки : Прогрессивная
    Бит/(Пиксели*Кадры) : 0.263
    Размер потока : 374 Мбайт (92%)
    Язык : English
    Дата кодирования : UTC 2010-12-22 00: 32: 17
    Дата пометки : UTC 2010-12-22 00: 32: 46
    Цветовой диапазон : Limited
    Основные цвета : BT.601 NTSC
    Характеристики трансфера : BT.709
    Коэффициенты матрицы : BT.601
    Аудио
    Идентификатор : 3
    Формат : AAC
    Формат/Информация : Advanced Audio Codec
    Профиль формата : LC
    Идентификатор кодека : mp4a-40-2
    Продолжительность : 35 м. 52 с.
    Продолжительность оригинала : 35 м. 52 с.
    Вид битрейта : Постоянный
    Битрейт : 128 Кбит/сек
    Каналы : 2 канала
    Расположение каналов : Front: L R
    Частота : 44, 1 КГц
    Частота кадров : 43, 066 кадра/сек (1024 SPF)
    Метод сжатия : С потерями
    Размер потока : 31, 8 Мбайт (8%)
    Размер потока оригинала : 31, 8 Мбайт (8%)
    Язык : English
    Дата кодирования : UTC 2010-12-22 00: 32: 18
    Дата пометки : UTC 2010-12-22 00: 32: 46
    Menus : 1
    Текст
    Идентификатор : 1
    Формат : Timed Text
    Идентификатор кодека : tx3g
    Продолжительность : 35 м. 52 с.
    Вид битрейта : Переменный
    Битрейт : 1 бит/сек
    Размер потока : 392 байт (0%)
    Язык : English
    Default : Нет
    Forced : Нет
    Дата кодирования : UTC 2010-12-22 00: 32: 17
    Дата пометки : UTC 2010-12-22 00: 32: 46
    Menu For : 3
    Общее
    Полное имя : I: РазноеЗдоровьеTRXTRXTV - Get MobileWeek 1TRXTV_Jan11_Mobility_WK1_Movement.m4v
    Формат : MPEG-4
    Идентификатор кодека : M4V (M4V /M4A /mp42/isom)
    Размер файла : 30, 7 Мбайт
    Продолжительность : 2 м. 37 с.
    Общий поток : 1631 Кбит/сек
    Дата кодирования : UTC 2010-12-21 23: 52: 06
    Дата пометки : UTC 2010-12-21 23: 52: 07
    Видео
    Идентификатор : 1
    Формат : AVC
    Формат/Информация : Advanced Video Codec
    Профиль формата : Baseline@L3
    Настройки формата : 1 Ref Frames
    Параметр CABAC формата : Нет
    Параметр RefFrames формата : 1 кадр
    Параметр GOP формата : M=1, N=120
    Идентификатор кодека : avc1
    Идентификатор кодека/Информация : Advanced Video Coding
    Продолжительность : 2 м. 37 с.
    Битрейт : 1523 Кбит/сек
    Ширина : 640 пикселей
    Высота : 360 пикселей
    Соотношение сторон : 16: 9
    Режим частоты кадров : Постоянный
    Частота кадров : 23, 976 (23976/1000) кадра/сек
    Цветовое пространство : YUV
    Субдискретизация насыщенности : 4: 2: 0
    Битовая глубина : 8 бит
    Тип развёртки : Прогрессивная
    Бит/(Пиксели*Кадры) : 0.276
    Размер потока : 28, 6 Мбайт (93%)
    Язык : English
    Дата кодирования : UTC 2010-12-21 23: 52: 06
    Дата пометки : UTC 2010-12-21 23: 52: 07
    Цветовой диапазон : Limited
    Основные цвета : BT.601 NTSC
    Характеристики трансфера : BT.709
    Коэффициенты матрицы : BT.601
    Аудио
    Идентификатор : 2
    Формат : AAC
    Формат/Информация : Advanced Audio Codec
    Профиль формата : LC
    Идентификатор кодека : mp4a-40-2
    Продолжительность : 2 м. 37 с.
    Продолжительность оригинала : 2 м. 37 с.
    Вид битрейта : Постоянный
    Битрейт : 105 Кбит/сек
    Номинальный битрейт : 128 Кбит/сек
    Каналы : 2 канала
    Расположение каналов : Front: L R
    Частота : 44, 1 КГц
    Частота кадров : 43, 066 кадра/сек (1024 SPF)
    Метод сжатия : С потерями
    Размер потока : 1, 96 Мбайт (6%)
    Размер потока оригинала : 1, 96 Мбайт (6%)
    Язык : English
    Дата кодирования : UTC 2010-12-21 23: 52: 06
    Дата пометки : UTC 2010-12-21 23: 52: 07
    Общее
    Полное имя : I: РазноеЗдоровьеTRXTRXTV - Get MobileWeek 1TRXTV_Jan11_Mobility_WK1_Sequence.m4v
    Формат : MPEG-4
    Идентификатор кодека : M4V (M4V /M4A /mp42/isom)
    Размер файла : 50, 3 Мбайт
    Продолжительность : 4 м. 24 с.
    Общий поток : 1594 Кбит/сек
    Дата кодирования : UTC 2010-12-22 00: 30: 45
    Дата пометки : UTC 2010-12-22 00: 30: 47
    Видео
    Идентификатор : 1
    Формат : AVC
    Формат/Информация : Advanced Video Codec
    Профиль формата : Baseline@L3
    Настройки формата : 1 Ref Frames
    Параметр CABAC формата : Нет
    Параметр RefFrames формата : 1 кадр
    Параметр GOP формата : M=1, N=120
    Идентификатор кодека : avc1
    Идентификатор кодека/Информация : Advanced Video Coding
    Продолжительность : 4 м. 24 с.
    Битрейт : 1479 Кбит/сек
    Ширина : 640 пикселей
    Высота : 360 пикселей
    Соотношение сторон : 16: 9
    Режим частоты кадров : Постоянный
    Частота кадров : 23, 976 (23976/1000) кадра/сек
    Цветовое пространство : YUV
    Субдискретизация насыщенности : 4: 2: 0
    Битовая глубина : 8 бит
    Тип развёртки : Прогрессивная
    Бит/(Пиксели*Кадры) : 0.268
    Размер потока : 46, 7 Мбайт (93%)
    Язык : English
    Дата кодирования : UTC 2010-12-22 00: 30: 44
    Дата пометки : UTC 2010-12-22 00: 30: 47
    Цветовой диапазон : Limited
    Основные цвета : BT.601 NTSC
    Характеристики трансфера : BT.709
    Коэффициенты матрицы : BT.601
    Аудио
    Идентификатор : 2
    Формат : AAC
    Формат/Информация : Advanced Audio Codec
    Профиль формата : LC
    Идентификатор кодека : mp4a-40-2
    Продолжительность : 4 м. 24 с.
    Продолжительность оригинала : 4 м. 24 с.
    Вид битрейта : Постоянный
    Битрейт : 112 Кбит/сек
    Номинальный битрейт : 128 Кбит/сек
    Каналы : 2 канала
    Расположение каналов : Front: L R
    Частота : 44, 1 КГц
    Частота кадров : 43, 066 кадра/сек (1024 SPF)
    Метод сжатия : С потерями
    Размер потока : 3, 54 Мбайт (7%)
    Размер потока оригинала : 3, 54 Мбайт (7%)
    Язык : English
    Дата кодирования : UTC 2010-12-22 00: 30: 45
    Дата пометки : UTC 2010-12-22 00: 30: 47
    Общее
    Полное имя : I: РазноеЗдоровьеTRXTRXTV - Get MobileWeek 1TRXTV_Jan11_Mobility_WK1_Tip.m4v
    Формат : MPEG-4
    Идентификатор кодека : M4V (M4V /M4A /mp42/isom)
    Размер файла : 26, 6 Мбайт
    Продолжительность : 2 м. 20 с.
    Общий поток : 1588 Кбит/сек
    Дата кодирования : UTC 2010-12-21 23: 40: 54
    Дата пометки : UTC 2010-12-21 23: 40: 55
    Видео
    Идентификатор : 1
    Формат : AVC
    Формат/Информация : Advanced Video Codec
    Профиль формата : Baseline@L3
    Настройки формата : 1 Ref Frames
    Параметр CABAC формата : Нет
    Параметр RefFrames формата : 1 кадр
    Параметр GOP формата : M=1, N=120
    Идентификатор кодека : avc1
    Идентификатор кодека/Информация : Advanced Video Coding
    Продолжительность : 2 м. 20 с.
    Битрейт : 1484 Кбит/сек
    Ширина : 640 пикселей
    Высота : 360 пикселей
    Соотношение сторон : 16: 9
    Режим частоты кадров : Постоянный
    Частота кадров : 23, 976 (23976/1000) кадра/сек
    Цветовое пространство : YUV
    Субдискретизация насыщенности : 4: 2: 0
    Битовая глубина : 8 бит
    Тип развёртки : Прогрессивная
    Бит/(Пиксели*Кадры) : 0.269
    Размер потока : 24, 8 Мбайт (93%)
    Язык : English
    Дата кодирования : UTC 2010-12-21 23: 40: 54
    Дата пометки : UTC 2010-12-21 23: 40: 55
    Цветовой диапазон : Limited
    Основные цвета : BT.601 NTSC
    Характеристики трансфера : BT.709
    Коэффициенты матрицы : BT.601
    Аудио
    Идентификатор : 2
    Формат : AAC
    Формат/Информация : Advanced Audio Codec
    Профиль формата : LC
    Идентификатор кодека : mp4a-40-2
    Продолжительность : 2 м. 20 с.
    Продолжительность оригинала : 2 м. 20 с.
    Вид битрейта : Постоянный
    Битрейт : 100 Кбит/сек
    Номинальный битрейт : 128 Кбит/сек
    Каналы : 2 канала
    Расположение каналов : Front: L R
    Частота : 44, 1 КГц
    Частота кадров : 43, 066 кадра/сек (1024 SPF)
    Метод сжатия : С потерями
    Размер потока : 1, 68 Мбайт (6%)
    Размер потока оригинала : 1, 68 Мбайт (6%)
    Язык : English
    Дата кодирования : UTC 2010-12-21 23: 40: 54
    Дата пометки : UTC 2010-12-21 23: 40: 55
    Общее
    Полное имя : I: РазноеЗдоровьеTRXTRXTV - Get MobileWeek 2TRXTV_Jan11_Mobility_WK2_Movement.m4v
    Формат : MPEG-4
    Идентификатор кодека : M4V (M4V /M4A /mp42/isom)
    Размер файла : 24, 8 Мбайт
    Продолжительность : 2 м. 11 с.
    Общий поток : 1586 Кбит/сек
    Дата кодирования : UTC 2010-12-22 00: 08: 30
    Дата пометки : UTC 2010-12-22 00: 08: 31
    Видео
    Идентификатор : 1
    Формат : AVC
    Формат/Информация : Advanced Video Codec
    Профиль формата : Baseline@L3
    Настройки формата : 1 Ref Frames
    Параметр CABAC формата : Нет
    Параметр RefFrames формата : 1 кадр
    Параметр GOP формата : M=1, N=120
    Идентификатор кодека : avc1
    Идентификатор кодека/Информация : Advanced Video Coding
    Продолжительность : 2 м. 11 с.
    Битрейт : 1482 Кбит/сек
    Ширина : 640 пикселей
    Высота : 360 пикселей
    Соотношение сторон : 16: 9
    Режим частоты кадров : Постоянный
    Частота кадров : 23, 976 (23976/1000) кадра/сек
    Цветовое пространство : YUV
    Субдискретизация насыщенности : 4: 2: 0
    Битовая глубина : 8 бит
    Тип развёртки : Прогрессивная
    Бит/(Пиксели*Кадры) : 0.268
    Размер потока : 23, 2 Мбайт (93%)
    Язык : English
    Дата кодирования : UTC 2010-12-22 00: 08: 30
    Дата пометки : UTC 2010-12-22 00: 08: 31
    Цветовой диапазон : Limited
    Основные цвета : BT.601 NTSC
    Характеристики трансфера : BT.709
    Коэффициенты матрицы : BT.601
    Аудио
    Идентификатор : 2
    Формат : AAC
    Формат/Информация : Advanced Audio Codec
    Профиль формата : LC
    Идентификатор кодека : mp4a-40-2
    Продолжительность : 2 м. 11 с.
    Продолжительность оригинала : 2 м. 11 с.
    Вид битрейта : Постоянный
    Битрейт : 100 Кбит/сек
    Номинальный битрейт : 128 Кбит/сек
    Каналы : 2 канала
    Расположение каналов : Front: L R
    Частота : 44, 1 КГц
    Частота кадров : 43, 066 кадра/сек (1024 SPF)
    Метод сжатия : С потерями
    Размер потока : 1, 57 Мбайт (6%)
    Размер потока оригинала : 1, 57 Мбайт (6%)
    Язык : English
    Дата кодирования : UTC 2010-12-22 00: 08: 30
    Дата пометки : UTC 2010-12-22 00: 08: 31
    Общее
    Полное имя : I: РазноеЗдоровьеTRXTRXTV - Get MobileWeek 2TRXTV_Jan11_Mobility_WK2_Sequence.m4v
    Формат : MPEG-4
    Идентификатор кодека : M4V (M4V /M4A /mp42/isom)
    Размер файла : 45, 4 Мбайт
    Продолжительность : 4 м. 3 с.
    Общий поток : 1567 Кбит/сек
    Дата кодирования : UTC 2010-12-22 00: 16: 56
    Дата пометки : UTC 2010-12-22 00: 16: 58
    Видео
    Идентификатор : 1
    Формат : AVC
    Формат/Информация : Advanced Video Codec
    Профиль формата : Baseline@L3
    Настройки формата : 1 Ref Frames
    Параметр CABAC формата : Нет
    Параметр RefFrames формата : 1 кадр
    Параметр GOP формата : M=1, N=120
    Идентификатор кодека : avc1
    Идентификатор кодека/Информация : Advanced Video Coding
    Продолжительность : 4 м. 3 с.
    Битрейт : 1451 Кбит/сек
    Ширина : 640 пикселей
    Высота : 360 пикселей
    Соотношение сторон : 16: 9
    Режим частоты кадров : Постоянный
    Частота кадров : 23, 976 (23976/1000) кадра/сек
    Цветовое пространство : YUV
    Субдискретизация насыщенности : 4: 2: 0
    Битовая глубина : 8 бит
    Тип развёртки : Прогрессивная
    Бит/(Пиксели*Кадры) : 0.263
    Размер потока : 42, 1 Мбайт (93%)
    Язык : English
    Дата кодирования : UTC 2010-12-22 00: 16: 56
    Дата пометки : UTC 2010-12-22 00: 16: 58
    Цветовой диапазон : Limited
    Основные цвета : BT.601 NTSC
    Характеристики трансфера : BT.709
    Коэффициенты матрицы : BT.601
    Аудио
    Идентификатор : 2
    Формат : AAC
    Формат/Информация : Advanced Audio Codec
    Профиль формата : LC
    Идентификатор кодека : mp4a-40-2
    Продолжительность : 4 м. 3 с.
    Продолжительность оригинала : 4 м. 3 с.
    Вид битрейта : Постоянный
    Битрейт : 112 Кбит/сек
    Номинальный битрейт : 128 Кбит/сек
    Каналы : 2 канала
    Расположение каналов : Front: L R
    Частота : 44, 1 КГц
    Частота кадров : 43, 066 кадра/сек (1024 SPF)
    Метод сжатия : С потерями
    Размер потока : 3, 24 Мбайт (7%)
    Размер потока оригинала : 3, 24 Мбайт (7%)
    Язык : English
    Дата кодирования : UTC 2010-12-22 00: 16: 56
    Дата пометки : UTC 2010-12-22 00: 16: 58
    Общее
    Полное имя : I: РазноеЗдоровьеTRXTRXTV - Get MobileWeek 2TRXTV_Jan11_Mobility_WK2_Tip.m4v
    Формат : MPEG-4
    Идентификатор кодека : M4V (M4V /M4A /mp42/isom)
    Размер файла : 27, 1 Мбайт
    Продолжительность : 2 м. 25 с.
    Общий поток : 1561 Кбит/сек
    Дата кодирования : UTC 2010-12-22 00: 21: 48
    Дата пометки : UTC 2010-12-22 00: 21: 49
    Видео
    Идентификатор : 1
    Формат : AVC
    Формат/Информация : Advanced Video Codec
    Профиль формата : Baseline@L3
    Настройки формата : 1 Ref Frames
    Параметр CABAC формата : Нет
    Параметр RefFrames формата : 1 кадр
    Параметр GOP формата : M=1, N=120
    Идентификатор кодека : avc1
    Идентификатор кодека/Информация : Advanced Video Coding
    Продолжительность : 2 м. 25 с.
    Битрейт : 1455 Кбит/сек
    Ширина : 640 пикселей
    Высота : 360 пикселей
    Соотношение сторон : 16: 9
    Режим частоты кадров : Постоянный
    Частота кадров : 23, 976 (23976/1000) кадра/сек
    Цветовое пространство : YUV
    Субдискретизация насыщенности : 4: 2: 0
    Битовая глубина : 8 бит
    Тип развёртки : Прогрессивная
    Бит/(Пиксели*Кадры) : 0.263
    Размер потока : 25, 3 Мбайт (93%)
    Язык : English
    Дата кодирования : UTC 2010-12-22 00: 21: 48
    Дата пометки : UTC 2010-12-22 00: 21: 49
    Цветовой диапазон : Limited
    Основные цвета : BT.601 NTSC
    Характеристики трансфера : BT.709
    Коэффициенты матрицы : BT.601
    Аудио
    Идентификатор : 2
    Формат : AAC
    Формат/Информация : Advanced Audio Codec
    Профиль формата : LC
    Идентификатор кодека : mp4a-40-2
    Продолжительность : 2 м. 25 с.
    Продолжительность оригинала : 2 м. 25 с.
    Вид битрейта : Постоянный
    Битрейт : 103 Кбит/сек
    Номинальный битрейт : 128 Кбит/сек
    Каналы : 2 канала
    Расположение каналов : Front: L R
    Частота : 44, 1 КГц
    Частота кадров : 43, 066 кадра/сек (1024 SPF)
    Метод сжатия : С потерями
    Размер потока : 1, 79 Мбайт (7%)
    Размер потока оригинала : 1, 79 Мбайт (7%)
    Язык : English
    Дата кодирования : UTC 2010-12-22 00: 21: 48
    Дата пометки : UTC 2010-12-22 00: 21: 49
    Общее
    Полное имя : I: РазноеЗдоровьеTRXTRXTV - Get MobileWeek 3TRXTV_Jan11_Mobility_WK3_Movement.m4v
    Формат : MPEG-4
    Идентификатор кодека : M4V (M4V /M4A /mp42/isom)
    Размер файла : 28, 0 Мбайт
    Продолжительность : 2 м. 27 с.
    Общий поток : 1592 Кбит/сек
    Дата кодирования : UTC 2010-12-22 00: 36: 34
    Дата пометки : UTC 2010-12-22 00: 36: 35
    Видео
    Идентификатор : 1
    Формат : AVC
    Формат/Информация : Advanced Video Codec
    Профиль формата : Baseline@L3
    Настройки формата : 1 Ref Frames
    Параметр CABAC формата : Нет
    Параметр RefFrames формата : 1 кадр
    Параметр GOP формата : M=1, N=120
    Идентификатор кодека : avc1
    Идентификатор кодека/Информация : Advanced Video Coding
    Продолжительность : 2 м. 27 с.
    Битрейт : 1485 Кбит/сек
    Ширина : 640 пикселей
    Высота : 360 пикселей
    Соотношение сторон : 16: 9
    Режим частоты кадров : Постоянный
    Частота кадров : 23, 976 (23976/1000) кадра/сек
    Цветовое пространство : YUV
    Субдискретизация насыщенности : 4: 2: 0
    Битовая глубина : 8 бит
    Тип развёртки : Прогрессивная
    Бит/(Пиксели*Кадры) : 0.269
    Размер потока : 26, 1 Мбайт (93%)
    Язык : English
    Дата кодирования : UTC 2010-12-22 00: 36: 34
    Дата пометки : UTC 2010-12-22 00: 36: 35
    Цветовой диапазон : Limited
    Основные цвета : BT.601 NTSC
    Характеристики трансфера : BT.709
    Коэффициенты матрицы : BT.601
    Аудио
    Идентификатор : 2
    Формат : AAC
    Формат/Информация : Advanced Audio Codec
    Профиль формата : LC
    Идентификатор кодека : mp4a-40-2
    Продолжительность : 2 м. 27 с.
    Продолжительность оригинала : 2 м. 27 с.
    Вид битрейта : Постоянный
    Битрейт : 103 Кбит/сек
    Номинальный битрейт : 128 Кбит/сек
    Каналы : 2 канала
    Расположение каналов : Front: L R
    Частота : 44, 1 КГц
    Частота кадров : 43, 066 кадра/сек (1024 SPF)
    Метод сжатия : С потерями
    Размер потока : 1, 80 Мбайт (6%)
    Размер потока оригинала : 1, 80 Мбайт (6%)
    Язык : English
    Дата кодирования : UTC 2010-12-22 00: 36: 34
    Дата пометки : UTC 2010-12-22 00: 36: 35
    Общее
    Полное имя : I: РазноеЗдоровьеTRXTRXTV - Get MobileWeek 3TRXTV_Jan11_Mobility_WK3_Sequence.m4v
    Формат : MPEG-4
    Идентификатор кодека : M4V (M4V /M4A /mp42/isom)
    Размер файла : 50, 1 Мбайт
    Продолжительность : 4 м. 28 с.
    Общий поток : 1568 Кбит/сек
    Дата кодирования : UTC 2010-12-21 23: 36: 19
    Дата пометки : UTC 2010-12-21 23: 36: 22
    Видео
    Идентификатор : 1
    Формат : AVC
    Формат/Информация : Advanced Video Codec
    Профиль формата : Baseline@L3
    Настройки формата : 1 Ref Frames
    Параметр CABAC формата : Нет
    Параметр RefFrames формата : 1 кадр
    Параметр GOP формата : M=1, N=120
    Идентификатор кодека : avc1
    Идентификатор кодека/Информация : Advanced Video Coding
    Продолжительность : 4 м. 28 с.
    Битрейт : 1450 Кбит/сек
    Ширина : 640 пикселей
    Высота : 360 пикселей
    Соотношение сторон : 16: 9
    Режим частоты кадров : Постоянный
    Частота кадров : 23, 976 (23976/1000) кадра/сек
    Цветовое пространство : YUV
    Субдискретизация насыщенности : 4: 2: 0
    Битовая глубина : 8 бит
    Тип развёртки : Прогрессивная
    Бит/(Пиксели*Кадры) : 0.262
    Размер потока : 46, 4 Мбайт (93%)
    Язык : English
    Дата кодирования : UTC 2010-12-21 23: 36: 19
    Дата пометки : UTC 2010-12-21 23: 36: 22
    Цветовой диапазон : Limited
    Основные цвета : BT.601 NTSC
    Характеристики трансфера : BT.709
    Коэффициенты матрицы : BT.601
    Аудио
    Идентификатор : 2
    Формат : AAC
    Формат/Информация : Advanced Audio Codec
    Профиль формата : LC
    Идентификатор кодека : mp4a-40-2
    Продолжительность : 4 м. 28 с.
    Продолжительность оригинала : 4 м. 28 с.
    Вид битрейта : Постоянный
    Битрейт : 114 Кбит/сек
    Номинальный битрейт : 128 Кбит/сек
    Каналы : 2 канала
    Расположение каналов : Front: L R
    Частота : 44, 1 КГц
    Частота кадров : 43, 066 кадра/сек (1024 SPF)
    Метод сжатия : С потерями
    Размер потока : 3, 65 Мбайт (7%)
    Размер потока оригинала : 3, 65 Мбайт (7%)
    Язык : English
    Дата кодирования : UTC 2010-12-21 23: 36: 19
    Дата пометки : UTC 2010-12-21 23: 36: 22
    Общее
    Полное имя : I: РазноеЗдоровьеTRXTRXTV - Get MobileWeek 3TRXTV_Jan11_Mobility_WK3_Tip.m4v
    Формат : MPEG-4
    Идентификатор кодека : M4V (M4V /M4A /mp42/isom)
    Размер файла : 25, 6 Мбайт
    Продолжительность : 2 м. 13 с.
    Общий поток : 1617 Кбит/сек
    Дата кодирования : UTC 2010-12-21 23: 27: 30
    Дата пометки : UTC 2010-12-21 23: 27: 31
    Видео
    Идентификатор : 1
    Формат : AVC
    Формат/Информация : Advanced Video Codec
    Профиль формата : Baseline@L3
    Настройки формата : 1 Ref Frames
    Параметр CABAC формата : Нет
    Параметр RefFrames формата : 1 кадр
    Параметр GOP формата : M=1, N=120
    Идентификатор кодека : avc1
    Идентификатор кодека/Информация : Advanced Video Coding
    Продолжительность : 2 м. 13 с.
    Битрейт : 1513 Кбит/сек
    Ширина : 640 пикселей
    Высота : 360 пикселей
    Соотношение сторон : 16: 9
    Режим частоты кадров : Постоянный
    Частота кадров : 23, 976 (23976/1000) кадра/сек
    Цветовое пространство : YUV
    Субдискретизация насыщенности : 4: 2: 0
    Битовая глубина : 8 бит
    Тип развёртки : Прогрессивная
    Бит/(Пиксели*Кадры) : 0.274
    Размер потока : 24, 0 Мбайт (94%)
    Язык : English
    Дата кодирования : UTC 2010-12-21 23: 27: 29
    Дата пометки : UTC 2010-12-21 23: 27: 31
    Цветовой диапазон : Limited
    Основные цвета : BT.601 NTSC
    Характеристики трансфера : BT.709
    Коэффициенты матрицы : BT.601
    Аудио
    Идентификатор : 2
    Формат : AAC
    Формат/Информация : Advanced Audio Codec
    Профиль формата : LC
    Идентификатор кодека : mp4a-40-2
    Продолжительность : 2 м. 13 с.
    Продолжительность оригинала : 2 м. 13 с.
    Вид битрейта : Постоянный
    Битрейт : 100 Кбит/сек
    Номинальный битрейт : 128 Кбит/сек
    Каналы : 2 канала
    Расположение каналов : Front: L R
    Частота : 44, 1 КГц
    Частота кадров : 43, 066 кадра/сек (1024 SPF)
    Метод сжатия : С потерями
    Размер потока : 1, 59 Мбайт (6%)
    Размер потока оригинала : 1, 59 Мбайт (6%)
    Язык : English
    Дата кодирования : UTC 2010-12-21 23: 27: 29
    Дата пометки : UTC 2010-12-21 23: 27: 31
    Общее
    Полное имя : I: РазноеЗдоровьеTRXTRXTV - Get MobileWeek 4TRXTV_Jan11_Mobility_WK4_Movement.m4v
    Формат : MPEG-4
    Идентификатор кодека : M4V (M4V /M4A /mp42/isom)
    Размер файла : 28, 1 Мбайт
    Продолжительность : 2 м. 29 с.
    Общий поток : 1575 Кбит/сек
    Дата кодирования : UTC 2010-12-21 23: 46: 52
    Дата пометки : UTC 2010-12-21 23: 46: 54
    Видео
    Идентификатор : 1
    Формат : AVC
    Формат/Информация : Advanced Video Codec
    Профиль формата : Baseline@L3
    Настройки формата : 1 Ref Frames
    Параметр CABAC формата : Нет
    Параметр RefFrames формата : 1 кадр
    Параметр GOP формата : M=1, N=120
    Идентификатор кодека : avc1
    Идентификатор кодека/Информация : Advanced Video Coding
    Продолжительность : 2 м. 29 с.
    Битрейт : 1469 Кбит/сек
    Ширина : 640 пикселей
    Высота : 360 пикселей
    Соотношение сторон : 16: 9
    Режим частоты кадров : Постоянный
    Частота кадров : 23, 976 (23976/1000) кадра/сек
    Цветовое пространство : YUV
    Субдискретизация насыщенности : 4: 2: 0
    Битовая глубина : 8 бит
    Тип развёртки : Прогрессивная
    Бит/(Пиксели*Кадры) : 0.266
    Размер потока : 26, 2 Мбайт (93%)
    Язык : English
    Дата кодирования : UTC 2010-12-21 23: 46: 52
    Дата пометки : UTC 2010-12-21 23: 46: 54
    Цветовой диапазон : Limited
    Основные цвета : BT.601 NTSC
    Характеристики трансфера : BT.709
    Коэффициенты матрицы : BT.601
    Аудио
    Идентификатор : 2
    Формат : AAC
    Формат/Информация : Advanced Audio Codec
    Профиль формата : LC
    Идентификатор кодека : mp4a-40-2
    Продолжительность : 2 м. 29 с.
    Продолжительность оригинала : 2 м. 29 с.
    Вид битрейта : Постоянный
    Битрейт : 103 Кбит/сек
    Номинальный битрейт : 128 Кбит/сек
    Каналы : 2 канала
    Расположение каналов : Front: L R
    Частота : 44, 1 КГц
    Частота кадров : 43, 066 кадра/сек (1024 SPF)
    Метод сжатия : С потерями
    Размер потока : 1, 83 Мбайт (7%)
    Размер потока оригинала : 1, 83 Мбайт (7%)
    Язык : English
    Дата кодирования : UTC 2010-12-21 23: 46: 52
    Дата пометки : UTC 2010-12-21 23: 46: 54
    Общее
    Полное имя : I: РазноеЗдоровьеTRXTRXTV - Get MobileWeek 4TRXTV_Jan11_Mobility_WK4_Sequence.m4v
    Формат : MPEG-4
    Идентификатор кодека : M4V (M4V /M4A /mp42/isom)
    Размер файла : 55, 2 Мбайт
    Продолжительность : 4 м. 54 с.
    Общий поток : 1573 Кбит/сек
    Дата кодирования : UTC 2010-12-22 00: 04: 08
    Дата пометки : UTC 2010-12-22 00: 04: 10
    Видео
    Идентификатор : 1
    Формат : AVC
    Формат/Информация : Advanced Video Codec
    Профиль формата : Baseline@L3
    Настройки формата : 1 Ref Frames
    Параметр CABAC формата : Нет
    Параметр RefFrames формата : 1 кадр
    Параметр GOP формата : M=1, N=120
    Идентификатор кодека : avc1
    Идентификатор кодека/Информация : Advanced Video Coding
    Продолжительность : 4 м. 54 с.
    Битрейт : 1455 Кбит/сек
    Ширина : 640 пикселей
    Высота : 360 пикселей
    Соотношение сторон : 16: 9
    Режим частоты кадров : Постоянный
    Частота кадров : 23, 976 (23976/1000) кадра/сек
    Цветовое пространство : YUV
    Субдискретизация насыщенности : 4: 2: 0
    Битовая глубина : 8 бит
    Тип развёртки : Прогрессивная
    Бит/(Пиксели*Кадры) : 0.263
    Размер потока : 51, 0 Мбайт (93%)
    Язык : English
    Дата кодирования : UTC 2010-12-22 00: 04: 07
    Дата пометки : UTC 2010-12-22 00: 04: 10
    Цветовой диапазон : Limited
    Основные цвета : BT.601 NTSC
    Характеристики трансфера : BT.709
    Коэффициенты матрицы : BT.601
    Аудио
    Идентификатор : 2
    Формат : AAC
    Формат/Информация : Advanced Audio Codec
    Профиль формата : LC
    Идентификатор кодека : mp4a-40-2
    Продолжительность : 4 м. 54 с.
    Вид битрейта : Постоянный
    Битрейт : 114 Кбит/сек
    Номинальный битрейт : 128 Кбит/сек
    Каналы : 2 канала
    Расположение каналов : Front: L R
    Частота : 44, 1 КГц
    Частота кадров : 43, 066 кадра/сек (1024 SPF)
    Метод сжатия : С потерями
    Размер потока : 4, 00 Мбайт (7%)
    Язык : English
    Дата кодирования : UTC 2010-12-22 00: 04: 07
    Дата пометки : UTC 2010-12-22 00: 04: 10
    Общее
    Полное имя : I: РазноеЗдоровьеTRXTRXTV - Get MobileWeek 4TRXTV_Jan11_Mobility_WK4_Tip.m4v
    Формат : MPEG-4
    Идентификатор кодека : M4V (M4V /M4A /mp42/isom)
    Размер файла : 24, 6 Мбайт
    Продолжительность : 2 м. 13 с.
    Общий поток : 1551 Кбит/сек
    Дата кодирования : UTC 2010-12-21 23: 54: 19
    Дата пометки : UTC 2010-12-21 23: 54: 20
    Видео
    Идентификатор : 1
    Формат : AVC
    Формат/Информация : Advanced Video Codec
    Профиль формата : Baseline@L3
    Настройки формата : 1 Ref Frames
    Параметр CABAC формата : Нет
    Параметр RefFrames формата : 1 кадр
    Параметр GOP формата : M=1, N=120
    Идентификатор кодека : avc1
    Идентификатор кодека/Информация : Advanced Video Coding
    Продолжительность : 2 м. 13 с.
    Битрейт : 1448 Кбит/сек
    Ширина : 640 пикселей
    Высота : 360 пикселей
    Соотношение сторон : 16: 9
    Режим частоты кадров : Постоянный
    Частота кадров : 23, 976 (23976/1000) кадра/сек
    Цветовое пространство : YUV
    Субдискретизация насыщенности : 4: 2: 0
    Битовая глубина : 8 бит
    Тип развёртки : Прогрессивная
    Бит/(Пиксели*Кадры) : 0.262
    Размер потока : 23, 0 Мбайт (93%)
    Язык : English
    Дата кодирования : UTC 2010-12-21 23: 54: 19
    Дата пометки : UTC 2010-12-21 23: 54: 20
    Цветовой диапазон : Limited
    Основные цвета : BT.601 NTSC
    Характеристики трансфера : BT.709
    Коэффициенты матрицы : BT.601
    Аудио
    Идентификатор : 2
    Формат : AAC
    Формат/Информация : Advanced Audio Codec
    Профиль формата : LC
    Идентификатор кодека : mp4a-40-2
    Продолжительность : 2 м. 13 с.
    Продолжительность оригинала : 2 м. 13 с.
    Вид битрейта : Постоянный
    Битрейт : 99, 8 Кбит/сек
    Номинальный битрейт : 128 Кбит/сек
    Каналы : 2 канала
    Расположение каналов : Front: L R
    Частота : 44, 1 КГц
    Частота кадров : 43, 066 кадра/сек (1024 SPF)
    Метод сжатия : С потерями
    Размер потока : 1, 58 Мбайт (6%)
    Размер потока оригинала : 1, 58 Мбайт (6%)
    Язык : English
    Дата кодирования : UTC 2010-12-21 23: 54: 19
    Дата пометки : UTC 2010-12-21 23: 54: 20
    Скриншоты:


    Время раздачи: Круглосуточно (до появления первых 3-5 скачавших)


    TRX TV | Get Mobile (2011) WEB-DLRip [H.264][EN]
    Рейтинг →
     (голосов: 1, оценка 3/5, голосовать можно 1 раз )

    Другие торренты по теме:

  • Kidou Keisatsu Patlabor: Patlabor on Television | Mobile Police Patlabor | Patlabor the Mobile Police TV | Полиция Будущего [ТВ] [1989, TV, 47 эп.] BDRip 1080p Hi10P raw скачать через торрент бесплатно
  • Shin Kidou Senki Gundam W TV | New Mobile Report Gundam Wing | Mobile Suit Gundam Wing | Мобильный ГАНДАМ Дубль-вэ [1995, TV, 49 эп.] BDrip 720p eng+raw
  • PrinterShare™ Mobile Print Premium v10.2.1 - Печать документов с планшета (17.10.2014) <Ru / En>
  • Mobile control v2.3.0 - Управление плеером, отправка уведомлений на компьютер v2.3.0 (05.12.2014) <Ru / Multi>
  • PrintHand Mobile Print Premium 6.4.2 - программа для печати документов (14.11.2014) <Ru / En>
  • Mobile Observatory - Astronomy v2.43 - вся информация о планетах (21.12.2014) <En / Ru>
  • Мобильный воин Гандам: Поколение / Mobile Suit Gundam Seed (2012) BDRip (49 из 49 эп.) [720p] ATV скачать через торрент бесплатно
  • Мобильный воин Гандам: Поколение / Mobile Suit Gundam Seed (2012) BDRip (49 из 49 эп.) [480p] iPad / iPhone


    • Комментарии (0):

      Информация

      Информация

        Посетители, находящиеся в группе Гости, не могут оставлять комментарии в данной новости.

        ↓ Меню




        ↓ Опрос

        Вы добавили сайт в закладки?
        Да
        Нет


        Top 10 за месяц (Книги)