.
Авторизация | Регистрация
Хочешь лучшие торренты? Добавь свой email!
Добавить

Торрент скачать бесплатно

  • support: webmaster@btracker.org
» » TRX TV | Condition to Win (2011) WEB-DLRip [H.264][EN] торрент скачать бесплатно


    TRX TV | Condition to Win (2011) WEB-DLRip [H.264][EN] торрент скачать бесплатно

    Опубликовал: Админ | Дата: 2-04-2018, 05:00 | .torrent скачали: 1

    TRX TV | Condition to Win (2011) WEB-DLRip [H.264][EN]Автор (режиссер): TRX TV
    Производство: TRX TV
    Жанр: Функциональный тренинг

    Описание

    Выпуск от TRX TV по кондиционной тренировке на петлях
    Продолжительность: 01: 24: 15
    Качество видео: WEB-DLRip
    Перевод: Отсутствует
    Язык озвучки: Английский
    Видео: AVC/H.264, 640х360, ~1481 Kbps
    Аудио: AAC, 2 ch, 128 Kbps

    Общее
    Полное имя : I: РазноеЗдоровьеTRXTRXTV - ConditiontoWinTRX TV Condition To Win - VisualGuide.pdf
    Формат : PDF
    Версия формата : 1.5
    Размер файла : 609 Кбайт
    Текст
    Формат : PDF
    Общее
    Полное имя : I: РазноеЗдоровьеTRXTRXTV - ConditiontoWinTRX TV Condition To Win - Workout.m4v
    Формат : MPEG-4
    Идентификатор кодека : M4V (M4V /M4A /mp42/isom)
    Размер файла : 429 Мбайт
    Продолжительность : 37 м. 15 с.
    Режим общего битрейта : Переменный
    Общий поток : 1609 Кбит/сек
    Дата кодирования : UTC 2011-05-27 23: 36: 03
    Дата пометки : UTC 2011-05-27 23: 36: 21
    Видео
    Идентификатор : 2
    Формат : AVC
    Формат/Информация : Advanced Video Codec
    Профиль формата : Baseline@L3
    Настройки формата : 1 Ref Frames
    Параметр CABAC формата : Нет
    Параметр RefFrames формата : 1 кадр
    Идентификатор кодека : avc1
    Идентификатор кодека/Информация : Advanced Video Coding
    Продолжительность : 37 м. 15 с.
    Битрейт : 1481 Кбит/сек
    Ширина : 640 пикселей
    Высота : 360 пикселей
    Соотношение сторон : 16: 9
    Режим частоты кадров : Постоянный
    Частота кадров : 23, 976 (23976/1000) кадра/сек
    Цветовое пространство : YUV
    Субдискретизация насыщенности : 4: 2: 0
    Битовая глубина : 8 бит
    Тип развёртки : Прогрессивная
    Бит/(Пиксели*Кадры) : 0.268
    Размер потока : 395 Мбайт (92%)
    Язык : English
    Дата кодирования : UTC 2011-05-27 23: 36: 01
    Дата пометки : UTC 2011-05-27 23: 36: 21
    Цветовой диапазон : Limited
    Основные цвета : BT.601 NTSC
    Характеристики трансфера : BT.709
    Коэффициенты матрицы : BT.601
    Аудио
    Идентификатор : 3
    Формат : AAC
    Формат/Информация : Advanced Audio Codec
    Профиль формата : LC
    Идентификатор кодека : mp4a-40-2
    Продолжительность : 37 м. 15 с.
    Продолжительность оригинала : 37 м. 15 с.
    Вид битрейта : Постоянный
    Битрейт : 128 Кбит/сек
    Каналы : 2 канала
    Расположение каналов : Front: L R
    Частота : 44, 1 КГц
    Частота кадров : 43, 066 кадра/сек (1024 SPF)
    Метод сжатия : С потерями
    Размер потока : 33, 2 Мбайт (8%)
    Размер потока оригинала : 33, 2 Мбайт (8%)
    Язык : English
    Дата кодирования : UTC 2011-05-27 23: 36: 01
    Дата пометки : UTC 2011-05-27 23: 36: 21
    Menus : 1
    Текст
    Идентификатор : 1
    Формат : Timed Text
    Идентификатор кодека : tx3g
    Продолжительность : 37 м. 15 с.
    Вид битрейта : Переменный
    Битрейт : 2 бит/сек
    Размер потока : 521 байт (0%)
    Язык : English
    Default : Нет
    Forced : Нет
    Дата кодирования : UTC 2011-05-27 23: 36: 01
    Дата пометки : UTC 2011-05-27 23: 36: 21
    Menu For : 3
    Общее
    Полное имя : I: РазноеЗдоровьеTRXTRXTV - ConditiontoWinWeek 1TRXTV_June11_ConditionToWin_WK1_Movement.m4v
    Формат : MPEG-4
    Идентификатор кодека : M4V (M4V /M4A /mp42/isom)
    Размер файла : 18, 6 Мбайт
    Продолжительность : 1 м. 33 с.
    Общий поток : 1669 Кбит/сек
    Дата кодирования : UTC 2011-05-27 21: 31: 59
    Дата пометки : UTC 2011-05-27 21: 32: 00
    Видео
    Идентификатор : 1
    Формат : AVC
    Формат/Информация : Advanced Video Codec
    Профиль формата : Baseline@L3
    Настройки формата : 1 Ref Frames
    Параметр CABAC формата : Нет
    Параметр RefFrames формата : 1 кадр
    Идентификатор кодека : avc1
    Идентификатор кодека/Информация : Advanced Video Coding
    Продолжительность : 1 м. 33 с.
    Битрейт : 1540 Кбит/сек
    Ширина : 640 пикселей
    Высота : 360 пикселей
    Соотношение сторон : 16: 9
    Режим частоты кадров : Постоянный
    Частота кадров : 23, 976 (23976/1000) кадра/сек
    Цветовое пространство : YUV
    Субдискретизация насыщенности : 4: 2: 0
    Битовая глубина : 8 бит
    Тип развёртки : Прогрессивная
    Бит/(Пиксели*Кадры) : 0.279
    Размер потока : 17, 2 Мбайт (92%)
    Язык : English
    Дата кодирования : UTC 2011-05-27 21: 31: 59
    Дата пометки : UTC 2011-05-27 21: 32: 00
    Цветовой диапазон : Limited
    Основные цвета : BT.601 NTSC
    Характеристики трансфера : BT.709
    Коэффициенты матрицы : BT.601
    Аудио
    Идентификатор : 2
    Формат : AAC
    Формат/Информация : Advanced Audio Codec
    Профиль формата : LC
    Идентификатор кодека : mp4a-40-2
    Продолжительность : 1 м. 33 с.
    Продолжительность оригинала : 1 м. 33 с.
    Вид битрейта : Постоянный
    Битрейт : 128 Кбит/сек
    Каналы : 2 канала
    Расположение каналов : Front: L R
    Частота : 44, 1 КГц
    Частота кадров : 43, 066 кадра/сек (1024 SPF)
    Метод сжатия : С потерями
    Размер потока : 1, 40 Мбайт (8%)
    Размер потока оригинала : 1, 40 Мбайт (8%)
    Язык : English
    Дата кодирования : UTC 2011-05-27 21: 31: 59
    Дата пометки : UTC 2011-05-27 21: 32: 00
    Общее
    Полное имя : I: РазноеЗдоровьеTRXTRXTV - ConditiontoWinWeek 1TRXTV_June11_ConditionToWin_WK1_Sequence.m4v
    Формат : MPEG-4
    Идентификатор кодека : M4V (M4V /M4A /mp42/isom)
    Размер файла : 69, 7 Мбайт
    Продолжительность : 6 м. 10 с.
    Общий поток : 1579 Кбит/сек
    Дата кодирования : UTC 2011-05-27 21: 05: 43
    Дата пометки : UTC 2011-05-27 21: 05: 46
    Видео
    Идентификатор : 1
    Формат : AVC
    Формат/Информация : Advanced Video Codec
    Профиль формата : Baseline@L3
    Настройки формата : 1 Ref Frames
    Параметр CABAC формата : Нет
    Параметр RefFrames формата : 1 кадр
    Идентификатор кодека : avc1
    Идентификатор кодека/Информация : Advanced Video Coding
    Продолжительность : 6 м. 10 с.
    Битрейт : 1450 Кбит/сек
    Ширина : 640 пикселей
    Высота : 360 пикселей
    Соотношение сторон : 16: 9
    Режим частоты кадров : Постоянный
    Частота кадров : 23, 976 (23976/1000) кадра/сек
    Цветовое пространство : YUV
    Субдискретизация насыщенности : 4: 2: 0
    Битовая глубина : 8 бит
    Тип развёртки : Прогрессивная
    Бит/(Пиксели*Кадры) : 0.262
    Размер потока : 64, 0 Мбайт (92%)
    Язык : English
    Дата кодирования : UTC 2011-05-27 21: 05: 43
    Дата пометки : UTC 2011-05-27 21: 05: 46
    Цветовой диапазон : Limited
    Основные цвета : BT.601 NTSC
    Характеристики трансфера : BT.709
    Коэффициенты матрицы : BT.601
    Аудио
    Идентификатор : 2
    Формат : AAC
    Формат/Информация : Advanced Audio Codec
    Профиль формата : LC
    Идентификатор кодека : mp4a-40-2
    Продолжительность : 6 м. 10 с.
    Продолжительность оригинала : 6 м. 10 с.
    Вид битрейта : Постоянный
    Битрейт : 128 Кбит/сек
    Каналы : 2 канала
    Расположение каналов : Front: L R
    Частота : 44, 1 КГц
    Частота кадров : 43, 066 кадра/сек (1024 SPF)
    Метод сжатия : С потерями
    Размер потока : 5, 54 Мбайт (8%)
    Размер потока оригинала : 5, 54 Мбайт (8%)
    Язык : English
    Дата кодирования : UTC 2011-05-27 21: 05: 43
    Дата пометки : UTC 2011-05-27 21: 05: 46
    Общее
    Полное имя : I: РазноеЗдоровьеTRXTRXTV - ConditiontoWinWeek 1TRXTV_June11_ConditionToWin_WK1_Tip.m4v
    Формат : MPEG-4
    Идентификатор кодека : M4V (M4V /M4A /mp42/isom)
    Размер файла : 26, 3 Мбайт
    Продолжительность : 2 м. 15 с.
    Общий поток : 1630 Кбит/сек
    Дата кодирования : UTC 2011-05-27 21: 24: 55
    Дата пометки : UTC 2011-05-27 21: 24: 56
    Видео
    Идентификатор : 1
    Формат : AVC
    Формат/Информация : Advanced Video Codec
    Профиль формата : Baseline@L3
    Настройки формата : 1 Ref Frames
    Параметр CABAC формата : Нет
    Параметр RefFrames формата : 1 кадр
    Идентификатор кодека : avc1
    Идентификатор кодека/Информация : Advanced Video Coding
    Продолжительность : 2 м. 15 с.
    Битрейт : 1501 Кбит/сек
    Ширина : 640 пикселей
    Высота : 360 пикселей
    Соотношение сторон : 16: 9
    Режим частоты кадров : Постоянный
    Частота кадров : 23, 976 (23976/1000) кадра/сек
    Цветовое пространство : YUV
    Субдискретизация насыщенности : 4: 2: 0
    Битовая глубина : 8 бит
    Тип развёртки : Прогрессивная
    Бит/(Пиксели*Кадры) : 0.272
    Размер потока : 24, 2 Мбайт (92%)
    Язык : English
    Дата кодирования : UTC 2011-05-27 21: 24: 54
    Дата пометки : UTC 2011-05-27 21: 24: 56
    Цветовой диапазон : Limited
    Основные цвета : BT.601 NTSC
    Характеристики трансфера : BT.709
    Коэффициенты матрицы : BT.601
    Аудио
    Идентификатор : 2
    Формат : AAC
    Формат/Информация : Advanced Audio Codec
    Профиль формата : LC
    Идентификатор кодека : mp4a-40-2
    Продолжительность : 2 м. 15 с.
    Продолжительность оригинала : 2 м. 15 с.
    Вид битрейта : Постоянный
    Битрейт : 128 Кбит/сек
    Каналы : 2 канала
    Расположение каналов : Front: L R
    Частота : 44, 1 КГц
    Частота кадров : 43, 066 кадра/сек (1024 SPF)
    Метод сжатия : С потерями
    Размер потока : 2, 01 Мбайт (8%)
    Размер потока оригинала : 2, 01 Мбайт (8%)
    Язык : English
    Дата кодирования : UTC 2011-05-27 21: 24: 54
    Дата пометки : UTC 2011-05-27 21: 24: 56
    Общее
    Полное имя : I: РазноеЗдоровьеTRXTRXTV - ConditiontoWinWeek 2TRXTV_June11_ConditionToWin_WK2_Movement.m4v
    Формат : MPEG-4
    Идентификатор кодека : M4V (M4V /M4A /mp42/isom)
    Размер файла : 22, 8 Мбайт
    Продолжительность : 1 м. 52 с.
    Общий поток : 1693 Кбит/сек
    Дата кодирования : UTC 2011-05-27 21: 22: 29
    Дата пометки : UTC 2011-05-27 21: 22: 30
    Видео
    Идентификатор : 1
    Формат : AVC
    Формат/Информация : Advanced Video Codec
    Профиль формата : Baseline@L3
    Настройки формата : 1 Ref Frames
    Параметр CABAC формата : Нет
    Параметр RefFrames формата : 1 кадр
    Идентификатор кодека : avc1
    Идентификатор кодека/Информация : Advanced Video Coding
    Продолжительность : 1 м. 52 с.
    Битрейт : 1564 Кбит/сек
    Ширина : 640 пикселей
    Высота : 360 пикселей
    Соотношение сторон : 16: 9
    Режим частоты кадров : Постоянный
    Частота кадров : 23, 976 (23976/1000) кадра/сек
    Цветовое пространство : YUV
    Субдискретизация насыщенности : 4: 2: 0
    Битовая глубина : 8 бит
    Тип развёртки : Прогрессивная
    Бит/(Пиксели*Кадры) : 0.283
    Размер потока : 21, 0 Мбайт (92%)
    Язык : English
    Дата кодирования : UTC 2011-05-27 21: 22: 28
    Дата пометки : UTC 2011-05-27 21: 22: 30
    Цветовой диапазон : Limited
    Основные цвета : BT.601 NTSC
    Характеристики трансфера : BT.709
    Коэффициенты матрицы : BT.601
    Аудио
    Идентификатор : 2
    Формат : AAC
    Формат/Информация : Advanced Audio Codec
    Профиль формата : LC
    Идентификатор кодека : mp4a-40-2
    Продолжительность : 1 м. 52 с.
    Продолжительность оригинала : 1 м. 52 с.
    Вид битрейта : Постоянный
    Битрейт : 128 Кбит/сек
    Каналы : 2 канала
    Расположение каналов : Front: L R
    Частота : 44, 1 КГц
    Частота кадров : 43, 066 кадра/сек (1024 SPF)
    Метод сжатия : С потерями
    Размер потока : 1, 69 Мбайт (7%)
    Размер потока оригинала : 1, 69 Мбайт (7%)
    Язык : English
    Дата кодирования : UTC 2011-05-27 21: 22: 28
    Дата пометки : UTC 2011-05-27 21: 22: 30
    Общее
    Полное имя : I: РазноеЗдоровьеTRXTRXTV - ConditiontoWinWeek 2TRXTV_June11_ConditionToWin_WK2_Sequence .m4v
    Формат : MPEG-4
    Идентификатор кодека : M4V (M4V /M4A /mp42/isom)
    Размер файла : 54, 3 Мбайт
    Продолжительность : 4 м. 46 с.
    Общий поток : 1591 Кбит/сек
    Дата кодирования : UTC 2011-05-27 20: 46: 32
    Дата пометки : UTC 2011-05-27 20: 46: 34
    Видео
    Идентификатор : 1
    Формат : AVC
    Формат/Информация : Advanced Video Codec
    Профиль формата : Baseline@L3
    Настройки формата : 1 Ref Frames
    Параметр CABAC формата : Нет
    Параметр RefFrames формата : 1 кадр
    Идентификатор кодека : avc1
    Идентификатор кодека/Информация : Advanced Video Coding
    Продолжительность : 4 м. 46 с.
    Битрейт : 1462 Кбит/сек
    Ширина : 640 пикселей
    Высота : 360 пикселей
    Соотношение сторон : 16: 9
    Режим частоты кадров : Постоянный
    Частота кадров : 23, 976 (23976/1000) кадра/сек
    Цветовое пространство : YUV
    Субдискретизация насыщенности : 4: 2: 0
    Битовая глубина : 8 бит
    Тип развёртки : Прогрессивная
    Бит/(Пиксели*Кадры) : 0.265
    Размер потока : 49, 9 Мбайт (92%)
    Язык : English
    Дата кодирования : UTC 2011-05-27 20: 46: 32
    Дата пометки : UTC 2011-05-27 20: 46: 34
    Цветовой диапазон : Limited
    Основные цвета : BT.601 NTSC
    Характеристики трансфера : BT.709
    Коэффициенты матрицы : BT.601
    Аудио
    Идентификатор : 2
    Формат : AAC
    Формат/Информация : Advanced Audio Codec
    Профиль формата : LC
    Идентификатор кодека : mp4a-40-2
    Продолжительность : 4 м. 46 с.
    Продолжительность оригинала : 4 м. 46 с.
    Вид битрейта : Постоянный
    Битрейт : 128 Кбит/сек
    Каналы : 2 канала
    Расположение каналов : Front: L R
    Частота : 44, 1 КГц
    Частота кадров : 43, 066 кадра/сек (1024 SPF)
    Метод сжатия : С потерями
    Размер потока : 4, 28 Мбайт (8%)
    Размер потока оригинала : 4, 28 Мбайт (8%)
    Язык : English
    Дата кодирования : UTC 2011-05-27 20: 46: 32
    Дата пометки : UTC 2011-05-27 20: 46: 34
    Общее
    Полное имя : I: РазноеЗдоровьеTRXTRXTV - ConditiontoWinWeek 2TRXTV_June11_ConditionToWin_WK2_Tip.m4v
    Формат : MPEG-4
    Идентификатор кодека : M4V (M4V /M4A /mp42/isom)
    Размер файла : 32, 1 Мбайт
    Продолжительность : 2 м. 46 с.
    Общий поток : 1615 Кбит/сек
    Дата кодирования : UTC 2011-05-27 21: 15: 19
    Дата пометки : UTC 2011-05-27 21: 15: 20
    Видео
    Идентификатор : 1
    Формат : AVC
    Формат/Информация : Advanced Video Codec
    Профиль формата : Baseline@L3
    Настройки формата : 1 Ref Frames
    Параметр CABAC формата : Нет
    Параметр RefFrames формата : 1 кадр
    Идентификатор кодека : avc1
    Идентификатор кодека/Информация : Advanced Video Coding
    Продолжительность : 2 м. 46 с.
    Битрейт : 1488 Кбит/сек
    Ширина : 640 пикселей
    Высота : 360 пикселей
    Соотношение сторон : 16: 9
    Режим частоты кадров : Постоянный
    Частота кадров : 23, 976 (23976/1000) кадра/сек
    Цветовое пространство : YUV
    Субдискретизация насыщенности : 4: 2: 0
    Битовая глубина : 8 бит
    Тип развёртки : Прогрессивная
    Бит/(Пиксели*Кадры) : 0.269
    Размер потока : 29, 6 Мбайт (92%)
    Язык : English
    Дата кодирования : UTC 2011-05-27 21: 15: 19
    Дата пометки : UTC 2011-05-27 21: 15: 20
    Цветовой диапазон : Limited
    Основные цвета : BT.601 NTSC
    Характеристики трансфера : BT.709
    Коэффициенты матрицы : BT.601
    Аудио
    Идентификатор : 2
    Формат : AAC
    Формат/Информация : Advanced Audio Codec
    Профиль формата : LC
    Идентификатор кодека : mp4a-40-2
    Продолжительность : 2 м. 46 с.
    Продолжительность оригинала : 2 м. 46 с.
    Вид битрейта : Постоянный
    Битрейт : 128 Кбит/сек
    Каналы : 2 канала
    Расположение каналов : Front: L R
    Частота : 44, 1 КГц
    Частота кадров : 43, 066 кадра/сек (1024 SPF)
    Метод сжатия : С потерями
    Размер потока : 2, 45 Мбайт (8%)
    Размер потока оригинала : 2, 45 Мбайт (8%)
    Язык : English
    Дата кодирования : UTC 2011-05-27 21: 15: 19
    Дата пометки : UTC 2011-05-27 21: 15: 20
    Общее
    Полное имя : I: РазноеЗдоровьеTRXTRXTV - ConditiontoWinWeek 3TRXTV_June11_ConditionToWin_WK3_Movement.m4v
    Формат : MPEG-4
    Идентификатор кодека : M4V (M4V /M4A /mp42/isom)
    Размер файла : 23, 9 Мбайт
    Продолжительность : 2 м. 0 с.
    Общий поток : 1662 Кбит/сек
    Дата кодирования : UTC 2011-05-27 21: 11: 28
    Дата пометки : UTC 2011-05-27 21: 11: 29
    Видео
    Идентификатор : 1
    Формат : AVC
    Формат/Информация : Advanced Video Codec
    Профиль формата : Baseline@L3
    Настройки формата : 1 Ref Frames
    Параметр CABAC формата : Нет
    Параметр RefFrames формата : 1 кадр
    Идентификатор кодека : avc1
    Идентификатор кодека/Информация : Advanced Video Coding
    Продолжительность : 2 м. 0 с.
    Битрейт : 1534 Кбит/сек
    Ширина : 640 пикселей
    Высота : 360 пикселей
    Соотношение сторон : 16: 9
    Режим частоты кадров : Постоянный
    Частота кадров : 23, 976 (23976/1000) кадра/сек
    Цветовое пространство : YUV
    Субдискретизация насыщенности : 4: 2: 0
    Битовая глубина : 8 бит
    Тип развёртки : Прогрессивная
    Бит/(Пиксели*Кадры) : 0.278
    Размер потока : 22, 0 Мбайт (92%)
    Язык : English
    Дата кодирования : UTC 2011-05-27 21: 11: 28
    Дата пометки : UTC 2011-05-27 21: 11: 29
    Цветовой диапазон : Limited
    Основные цвета : BT.601 NTSC
    Характеристики трансфера : BT.709
    Коэффициенты матрицы : BT.601
    Аудио
    Идентификатор : 2
    Формат : AAC
    Формат/Информация : Advanced Audio Codec
    Профиль формата : LC
    Идентификатор кодека : mp4a-40-2
    Продолжительность : 2 м. 0 с.
    Продолжительность оригинала : 2 м. 0 с.
    Вид битрейта : Постоянный
    Битрейт : 128 Кбит/сек
    Каналы : 2 канала
    Расположение каналов : Front: L R
    Частота : 44, 1 КГц
    Частота кадров : 43, 066 кадра/сек (1024 SPF)
    Метод сжатия : С потерями
    Размер потока : 1, 80 Мбайт (8%)
    Размер потока оригинала : 1, 80 Мбайт (8%)
    Язык : English
    Дата кодирования : UTC 2011-05-27 21: 11: 28
    Дата пометки : UTC 2011-05-27 21: 11: 29
    Общее
    Полное имя : I: РазноеЗдоровьеTRXTRXTV - ConditiontoWinWeek 3TRXTV_June11_ConditionToWin_WK3_Sequence.m4v
    Формат : MPEG-4
    Идентификатор кодека : M4V (M4V /M4A /mp42/isom)
    Размер файла : 76, 2 Мбайт
    Продолжительность : 6 м. 18 с.
    Общий поток : 1691 Кбит/сек
    Дата кодирования : UTC 2011-05-27 20: 16: 32
    Дата пометки : UTC 2011-05-27 20: 16: 37
    Видео
    Идентификатор : 1
    Формат : AVC
    Формат/Информация : Advanced Video Codec
    Профиль формата : Baseline@L3
    Настройки формата : 1 Ref Frames
    Параметр CABAC формата : Нет
    Параметр RefFrames формата : 1 кадр
    Идентификатор кодека : avc1
    Идентификатор кодека/Информация : Advanced Video Coding
    Продолжительность : 6 м. 18 с.
    Битрейт : 1562 Кбит/сек
    Ширина : 640 пикселей
    Высота : 360 пикселей
    Соотношение сторон : 16: 9
    Режим частоты кадров : Постоянный
    Частота кадров : 23, 976 (23976/1000) кадра/сек
    Цветовое пространство : YUV
    Субдискретизация насыщенности : 4: 2: 0
    Битовая глубина : 8 бит
    Тип развёртки : Прогрессивная
    Бит/(Пиксели*Кадры) : 0.283
    Размер потока : 70, 4 Мбайт (92%)
    Язык : English
    Дата кодирования : UTC 2011-05-27 20: 16: 32
    Дата пометки : UTC 2011-05-27 20: 16: 37
    Цветовой диапазон : Limited
    Основные цвета : BT.601 NTSC
    Характеристики трансфера : BT.709
    Коэффициенты матрицы : BT.601
    Аудио
    Идентификатор : 2
    Формат : AAC
    Формат/Информация : Advanced Audio Codec
    Профиль формата : LC
    Идентификатор кодека : mp4a-40-2
    Продолжительность : 6 м. 18 с.
    Продолжительность оригинала : 6 м. 18 с.
    Вид битрейта : Постоянный
    Битрейт : 128 Кбит/сек
    Каналы : 2 канала
    Расположение каналов : Front: L R
    Частота : 44, 1 КГц
    Частота кадров : 43, 066 кадра/сек (1024 SPF)
    Метод сжатия : С потерями
    Размер потока : 5, 64 Мбайт (7%)
    Размер потока оригинала : 5, 64 Мбайт (7%)
    Язык : English
    Дата кодирования : UTC 2011-05-27 20: 16: 32
    Дата пометки : UTC 2011-05-27 20: 16: 37
    Общее
    Полное имя : I: РазноеЗдоровьеTRXTRXTV - ConditiontoWinWeek 3TRXTV_June11_ConditionToWin_WK3_Tip.m4v
    Формат : MPEG-4
    Идентификатор кодека : M4V (M4V /M4A /mp42/isom)
    Размер файла : 42, 0 Мбайт
    Продолжительность : 3 м. 42 с.
    Общий поток : 1580 Кбит/сек
    Дата кодирования : UTC 2011-05-27 20: 53: 49
    Дата пометки : UTC 2011-05-27 20: 53: 51
    Видео
    Идентификатор : 1
    Формат : AVC
    Формат/Информация : Advanced Video Codec
    Профиль формата : Baseline@L3
    Настройки формата : 1 Ref Frames
    Параметр CABAC формата : Нет
    Параметр RefFrames формата : 1 кадр
    Идентификатор кодека : avc1
    Идентификатор кодека/Информация : Advanced Video Coding
    Продолжительность : 3 м. 42 с.
    Битрейт : 1451 Кбит/сек
    Ширина : 640 пикселей
    Высота : 360 пикселей
    Соотношение сторон : 16: 9
    Режим частоты кадров : Постоянный
    Частота кадров : 23, 976 (23976/1000) кадра/сек
    Цветовое пространство : YUV
    Субдискретизация насыщенности : 4: 2: 0
    Битовая глубина : 8 бит
    Тип развёртки : Прогрессивная
    Бит/(Пиксели*Кадры) : 0.263
    Размер потока : 38, 5 Мбайт (92%)
    Язык : English
    Дата кодирования : UTC 2011-05-27 20: 53: 48
    Дата пометки : UTC 2011-05-27 20: 53: 51
    Цветовой диапазон : Limited
    Основные цвета : BT.601 NTSC
    Характеристики трансфера : BT.709
    Коэффициенты матрицы : BT.601
    Аудио
    Идентификатор : 2
    Формат : AAC
    Формат/Информация : Advanced Audio Codec
    Профиль формата : LC
    Идентификатор кодека : mp4a-40-2
    Продолжительность : 3 м. 42 с.
    Продолжительность оригинала : 3 м. 42 с.
    Вид битрейта : Постоянный
    Битрейт : 128 Кбит/сек
    Каналы : 2 канала
    Расположение каналов : Front: L R
    Частота : 44, 1 КГц
    Частота кадров : 43, 066 кадра/сек (1024 SPF)
    Метод сжатия : С потерями
    Размер потока : 3, 33 Мбайт (8%)
    Размер потока оригинала : 3, 33 Мбайт (8%)
    Язык : English
    Дата кодирования : UTC 2011-05-27 20: 53: 49
    Дата пометки : UTC 2011-05-27 20: 53: 51
    Общее
    Полное имя : I: РазноеЗдоровьеTRXTRXTV - ConditiontoWinWeek 4TRXTV_June11_ConditionToWin_WK4_Movement.m4v
    Формат : MPEG-4
    Идентификатор кодека : M4V (M4V /M4A /mp42/isom)
    Размер файла : 25, 6 Мбайт
    Продолжительность : 2 м. 5 с.
    Общий поток : 1702 Кбит/сек
    Дата кодирования : UTC 2011-05-27 21: 05: 38
    Дата пометки : UTC 2011-05-27 21: 05: 40
    Видео
    Идентификатор : 1
    Формат : AVC
    Формат/Информация : Advanced Video Codec
    Профиль формата : Baseline@L3
    Настройки формата : 1 Ref Frames
    Параметр CABAC формата : Нет
    Параметр RefFrames формата : 1 кадр
    Идентификатор кодека : avc1
    Идентификатор кодека/Информация : Advanced Video Coding
    Продолжительность : 2 м. 5 с.
    Битрейт : 1568 Кбит/сек
    Ширина : 640 пикселей
    Высота : 360 пикселей
    Соотношение сторон : 16: 9
    Режим частоты кадров : Постоянный
    Частота кадров : 23, 976 (23976/1000) кадра/сек
    Цветовое пространство : YUV
    Субдискретизация насыщенности : 4: 2: 0
    Битовая глубина : 8 бит
    Тип развёртки : Прогрессивная
    Бит/(Пиксели*Кадры) : 0.284
    Размер потока : 23, 6 Мбайт (92%)
    Язык : English
    Дата кодирования : UTC 2011-05-27 21: 05: 38
    Дата пометки : UTC 2011-05-27 21: 05: 40
    Цветовой диапазон : Limited
    Основные цвета : BT.601 NTSC
    Характеристики трансфера : BT.709
    Коэффициенты матрицы : BT.601
    Аудио
    Идентификатор : 2
    Формат : AAC
    Формат/Информация : Advanced Audio Codec
    Профиль формата : LC
    Идентификатор кодека : mp4a-40-2
    Продолжительность : 2 м. 5 с.
    Продолжительность оригинала : 2 м. 5 с.
    Вид битрейта : Постоянный
    Битрейт : 128 Кбит/сек
    Каналы : 2 канала
    Расположение каналов : Front: L R
    Частота : 44, 1 КГц
    Частота кадров : 43, 066 кадра/сек (1024 SPF)
    Метод сжатия : С потерями
    Размер потока : 1, 95 Мбайт (8%)
    Размер потока оригинала : 1, 95 Мбайт (8%)
    Язык : English
    Дата кодирования : UTC 2011-05-27 21: 05: 38
    Дата пометки : UTC 2011-05-27 21: 05: 40
    Общее
    Полное имя : I: РазноеЗдоровьеTRXTRXTV - ConditiontoWinWeek 4TRXTV_June11_ConditionToWin_WK4_Sequence.m4v
    Формат : MPEG-4
    Идентификатор кодека : M4V (M4V /M4A /mp42/isom)
    Размер файла : 78, 6 Мбайт
    Продолжительность : 6 м. 33 с.
    Общий поток : 1677 Кбит/сек
    Дата кодирования : UTC 2011-05-27 19: 52: 05
    Дата пометки : UTC 2011-05-27 19: 52: 09
    Видео
    Идентификатор : 1
    Формат : AVC
    Формат/Информация : Advanced Video Codec
    Профиль формата : Baseline@L3
    Настройки формата : 1 Ref Frames
    Параметр CABAC формата : Нет
    Параметр RefFrames формата : 1 кадр
    Идентификатор кодека : avc1
    Идентификатор кодека/Информация : Advanced Video Coding
    Продолжительность : 6 м. 33 с.
    Битрейт : 1548 Кбит/сек
    Ширина : 640 пикселей
    Высота : 360 пикселей
    Соотношение сторон : 16: 9
    Режим частоты кадров : Постоянный
    Частота кадров : 23, 976 (23976/1000) кадра/сек
    Цветовое пространство : YUV
    Субдискретизация насыщенности : 4: 2: 0
    Битовая глубина : 8 бит
    Тип развёртки : Прогрессивная
    Бит/(Пиксели*Кадры) : 0.280
    Размер потока : 72, 5 Мбайт (92%)
    Язык : English
    Дата кодирования : UTC 2011-05-27 19: 52: 04
    Дата пометки : UTC 2011-05-27 19: 52: 09
    Цветовой диапазон : Limited
    Основные цвета : BT.601 NTSC
    Характеристики трансфера : BT.709
    Коэффициенты матрицы : BT.601
    Аудио
    Идентификатор : 2
    Формат : AAC
    Формат/Информация : Advanced Audio Codec
    Профиль формата : LC
    Идентификатор кодека : mp4a-40-2
    Продолжительность : 6 м. 33 с.
    Продолжительность оригинала : 6 м. 33 с.
    Вид битрейта : Постоянный
    Битрейт : 128 Кбит/сек
    Каналы : 2 канала
    Расположение каналов : Front: L R
    Частота : 44, 1 КГц
    Частота кадров : 43, 066 кадра/сек (1024 SPF)
    Метод сжатия : С потерями
    Размер потока : 5, 89 Мбайт (7%)
    Размер потока оригинала : 5, 89 Мбайт (7%)
    Язык : English
    Дата кодирования : UTC 2011-05-27 19: 52: 04
    Дата пометки : UTC 2011-05-27 19: 52: 09
    Общее
    Полное имя : I: РазноеЗдоровьеTRXTRXTV - ConditiontoWinWeek 4TRXTV_June11_ConditionToWin_WK4_Tip.m4v
    Формат : MPEG-4
    Идентификатор кодека : M4V (M4V /M4A /mp42/isom)
    Размер файла : 34, 7 Мбайт
    Продолжительность : 3 м. 4 с.
    Общий поток : 1576 Кбит/сек
    Дата кодирования : UTC 2011-05-27 20: 33: 22
    Дата пометки : UTC 2011-05-27 20: 33: 24
    Видео
    Идентификатор : 1
    Формат : AVC
    Формат/Информация : Advanced Video Codec
    Профиль формата : Baseline@L3
    Настройки формата : 1 Ref Frames
    Параметр CABAC формата : Нет
    Параметр RefFrames формата : 1 кадр
    Идентификатор кодека : avc1
    Идентификатор кодека/Информация : Advanced Video Coding
    Продолжительность : 3 м. 4 с.
    Битрейт : 1447 Кбит/сек
    Ширина : 640 пикселей
    Высота : 360 пикселей
    Соотношение сторон : 16: 9
    Режим частоты кадров : Постоянный
    Частота кадров : 23, 976 (23976/1000) кадра/сек
    Цветовое пространство : YUV
    Субдискретизация насыщенности : 4: 2: 0
    Битовая глубина : 8 бит
    Тип развёртки : Прогрессивная
    Бит/(Пиксели*Кадры) : 0.262
    Размер потока : 31, 9 Мбайт (92%)
    Язык : English
    Дата кодирования : UTC 2011-05-27 20: 33: 22
    Дата пометки : UTC 2011-05-27 20: 33: 24
    Цветовой диапазон : Limited
    Основные цвета : BT.601 NTSC
    Характеристики трансфера : BT.709
    Коэффициенты матрицы : BT.601
    Аудио
    Идентификатор : 2
    Формат : AAC
    Формат/Информация : Advanced Audio Codec
    Профиль формата : LC
    Идентификатор кодека : mp4a-40-2
    Продолжительность : 3 м. 4 с.
    Продолжительность оригинала : 3 м. 4 с.
    Вид битрейта : Постоянный
    Битрейт : 128 Кбит/сек
    Каналы : 2 канала
    Расположение каналов : Front: L R
    Частота : 44, 1 КГц
    Частота кадров : 43, 066 кадра/сек (1024 SPF)
    Метод сжатия : С потерями
    Размер потока : 2, 77 Мбайт (8%)
    Размер потока оригинала : 2, 77 Мбайт (8%)
    Язык : English
    Дата кодирования : UTC 2011-05-27 20: 33: 22
    Дата пометки : UTC 2011-05-27 20: 33: 24
    Скриншоты:


    Время раздачи: Круглосуточно (до появления первых 3-5 скачавших)


    TRX TV | Condition to Win (2011) WEB-DLRip [H.264][EN]
    Рейтинг →
     (голосов: 1, оценка 4/5, голосовать можно 1 раз )

    Другие торренты по теме:

  • Деликатное состояние папы / Papas Delicate Condition (1963) HDTVRip скачать через торрент бесплатно
  • No More Pain - The Post Human Condition (2014) [FLAC|image+.cue]<Progressive Rock> скачать через торрент бесплатно
  • Queensryche - Condition Human (2015) [MP3|320 кб / с]<Heavy / Power / Progressive Metal> скачать через торрент бесплатно
  • Lost Planet: Extreme Condition (2007) [Ru] (1.2) Repack =nemos= [Colonies Edition] скачать через торрент бесплатно
  • Lost Planet: Extreme Condition (2008) [PS3] [JAP] 2.10 [Unofficial] [Ru / Multi]
  • Lost Planet: Extreme Condition (2008) [PS3] [JAP] 2.10 [Cobra ODE / E3 ODE PRO ISO] [Unofficial] [Ru / Multi]
  • Condition Critical - Extermination Plan (2016) [MP3|320 кб / с] <Thrash Metal>
  • Skyliner - Condition Black (2016) [FLAC|Lossless|image + .cue] <Heavy Metal, Progressive Metal, Power Metal>


    • Комментарии (0):

      Информация

      Информация

        Посетители, находящиеся в группе Гости, не могут оставлять комментарии в данной новости.

        ↓ Меню




        ↓ Опрос

        Вы добавили сайт в закладки?
        Да
        Нет


        Top 10 за месяц (Книги)