.
Авторизация | Регистрация
Хочешь лучшие торренты? Добавь свой email!
Добавить

Торрент скачать бесплатно

  • support: webmaster@btracker.org
» » TRX TV | Flow Mobility (2011) WEB-DLRip [H.264][EN] торрент скачать бесплатно


    TRX TV | Flow Mobility (2011) WEB-DLRip [H.264][EN] торрент скачать бесплатно

    Опубликовал: Админ | Дата: 2-04-2018, 05:00 | .torrent скачали: 4

    TRX TV | Flow Mobility (2011) WEB-DLRip [H.264][EN]Автор (режиссер): TRX TV
    Производство: TRX TV
    Жанр: Функциональный тренинг

    Описание

    Tренировка на петлях TRX на развитие мобильности и подвижности плюс по три разноплановых тренировки для каждой недели
    Продолжительность: 01: 13: 11
    Качество видео: WEB-DLRip
    Перевод: Отсутствует
    Язык озвучки: Английский
    Видео: AVC/H.264, 640x360, ~1556 Kbps
    Аудио: AAC, 2 ch, 128 Kbps

    Общее
    Полное имя : I: РазноеЗдоровьеTRXTRXTV - Flow MobilityTRX TV Flow Mobility - VisualGuide.pdf
    Формат : PDF
    Версия формата : 1.5
    Размер файла : 796 Кбайт
    Текст
    Формат : PDF
    Общее
    Полное имя : I: РазноеЗдоровьеTRXTRXTV - Flow MobilityTRX TV Flow Mobility - Workout.m4v
    Формат : MPEG-4
    Идентификатор кодека : M4V (M4V /M4A /mp42/isom)
    Размер файла : 477 Мбайт
    Продолжительность : 39 м. 33 с.
    Режим общего битрейта : Переменный
    Общий поток : 1684 Кбит/сек
    Дата кодирования : UTC 2011-04-21 21: 32: 17
    Дата пометки : UTC 2011-04-21 21: 32: 38
    Видео
    Идентификатор : 2
    Формат : AVC
    Формат/Информация : Advanced Video Codec
    Профиль формата : Baseline@L3
    Настройки формата : 1 Ref Frames
    Параметр CABAC формата : Нет
    Параметр RefFrames формата : 1 кадр
    Идентификатор кодека : avc1
    Идентификатор кодека/Информация : Advanced Video Coding
    Продолжительность : 39 м. 33 с.
    Битрейт : 1556 Кбит/сек
    Ширина : 640 пикселей
    Высота : 360 пикселей
    Соотношение сторон : 16: 9
    Режим частоты кадров : Постоянный
    Частота кадров : 23, 976 (23976/1000) кадра/сек
    Цветовое пространство : YUV
    Субдискретизация насыщенности : 4: 2: 0
    Битовая глубина : 8 бит
    Тип развёртки : Прогрессивная
    Бит/(Пиксели*Кадры) : 0.282
    Размер потока : 440 Мбайт (92%)
    Язык : English
    Дата кодирования : UTC 2011-04-21 21: 32: 15
    Дата пометки : UTC 2011-04-21 21: 32: 38
    Цветовой диапазон : Limited
    Основные цвета : BT.601 NTSC
    Характеристики трансфера : BT.709
    Коэффициенты матрицы : BT.601
    Аудио
    Идентификатор : 3
    Формат : AAC
    Формат/Информация : Advanced Audio Codec
    Профиль формата : LC
    Идентификатор кодека : mp4a-40-2
    Продолжительность : 39 м. 33 с.
    Продолжительность оригинала : 39 м. 33 с.
    Вид битрейта : Постоянный
    Битрейт : 128 Кбит/сек
    Каналы : 2 канала
    Расположение каналов : Front: L R
    Частота : 44, 1 КГц
    Частота кадров : 43, 066 кадра/сек (1024 SPF)
    Метод сжатия : С потерями
    Размер потока : 35, 2 Мбайт (7%)
    Размер потока оригинала : 35, 2 Мбайт (7%)
    Язык : English
    Дата кодирования : UTC 2011-04-21 21: 32: 15
    Дата пометки : UTC 2011-04-21 21: 32: 38
    Menus : 1
    Текст
    Идентификатор : 1
    Формат : Timed Text
    Идентификатор кодека : tx3g
    Продолжительность : 39 м. 33 с.
    Вид битрейта : Переменный
    Битрейт : 2 бит/сек
    Размер потока : 527 байт (0%)
    Язык : English
    Default : Нет
    Forced : Нет
    Дата кодирования : UTC 2011-04-21 21: 32: 15
    Дата пометки : UTC 2011-04-21 21: 32: 38
    Menu For : 3
    Общее
    Полное имя : I: РазноеЗдоровьеTRXTRXTV - Flow MobilityWeek 1TRX TV Flow Mobility - WK1_Movement.m4v
    Формат : MPEG-4
    Идентификатор кодека : M4V (M4V /M4A /mp42/isom)
    Размер файла : 25, 0 Мбайт
    Продолжительность : 2 м. 8 с.
    Общий поток : 1637 Кбит/сек
    Дата кодирования : UTC 2011-04-21 19: 41: 29
    Дата пометки : UTC 2011-04-21 19: 41: 30
    Видео
    Идентификатор : 1
    Формат : AVC
    Формат/Информация : Advanced Video Codec
    Профиль формата : Baseline@L3
    Настройки формата : 1 Ref Frames
    Параметр CABAC формата : Нет
    Параметр RefFrames формата : 1 кадр
    Идентификатор кодека : avc1
    Идентификатор кодека/Информация : Advanced Video Coding
    Продолжительность : 2 м. 8 с.
    Битрейт : 1507 Кбит/сек
    Ширина : 640 пикселей
    Высота : 360 пикселей
    Соотношение сторон : 16: 9
    Режим частоты кадров : Постоянный
    Частота кадров : 23, 976 (23976/1000) кадра/сек
    Цветовое пространство : YUV
    Субдискретизация насыщенности : 4: 2: 0
    Битовая глубина : 8 бит
    Тип развёртки : Прогрессивная
    Бит/(Пиксели*Кадры) : 0.273
    Размер потока : 23, 0 Мбайт (92%)
    Язык : English
    Дата кодирования : UTC 2011-04-21 19: 41: 29
    Дата пометки : UTC 2011-04-21 19: 41: 30
    Цветовой диапазон : Limited
    Основные цвета : BT.601 NTSC
    Характеристики трансфера : BT.709
    Коэффициенты матрицы : BT.601
    Аудио
    Идентификатор : 2
    Формат : AAC
    Формат/Информация : Advanced Audio Codec
    Профиль формата : LC
    Идентификатор кодека : mp4a-40-2
    Продолжительность : 2 м. 8 с.
    Продолжительность оригинала : 2 м. 8 с.
    Вид битрейта : Постоянный
    Битрейт : 128 Кбит/сек
    Каналы : 2 канала
    Расположение каналов : Front: L R
    Частота : 44, 1 КГц
    Частота кадров : 43, 066 кадра/сек (1024 SPF)
    Метод сжатия : С потерями
    Размер потока : 1, 93 Мбайт (8%)
    Размер потока оригинала : 1, 93 Мбайт (8%)
    Язык : English
    Дата кодирования : UTC 2011-04-21 19: 41: 29
    Дата пометки : UTC 2011-04-21 19: 41: 30
    Общее
    Полное имя : I: РазноеЗдоровьеTRXTRXTV - Flow MobilityWeek 1TRX TV Flow Mobility - WK1_Sequence.m4v
    Формат : MPEG-4
    Идентификатор кодека : M4V (M4V /M4A /mp42/isom)
    Размер файла : 35, 3 Мбайт
    Продолжительность : 3 м. 9 с.
    Общий поток : 1568 Кбит/сек
    Дата кодирования : UTC 2011-04-21 20: 00: 48
    Дата пометки : UTC 2011-04-21 20: 00: 50
    Видео
    Идентификатор : 1
    Формат : AVC
    Формат/Информация : Advanced Video Codec
    Профиль формата : Baseline@L3
    Настройки формата : 1 Ref Frames
    Параметр CABAC формата : Нет
    Параметр RefFrames формата : 1 кадр
    Идентификатор кодека : avc1
    Идентификатор кодека/Информация : Advanced Video Coding
    Продолжительность : 3 м. 9 с.
    Битрейт : 1438 Кбит/сек
    Ширина : 640 пикселей
    Высота : 360 пикселей
    Соотношение сторон : 16: 9
    Режим частоты кадров : Постоянный
    Частота кадров : 23, 976 (23976/1000) кадра/сек
    Цветовое пространство : YUV
    Субдискретизация насыщенности : 4: 2: 0
    Битовая глубина : 8 бит
    Тип развёртки : Прогрессивная
    Бит/(Пиксели*Кадры) : 0.260
    Размер потока : 32, 4 Мбайт (92%)
    Язык : English
    Дата кодирования : UTC 2011-04-21 20: 00: 48
    Дата пометки : UTC 2011-04-21 20: 00: 50
    Цветовой диапазон : Limited
    Основные цвета : BT.601 NTSC
    Характеристики трансфера : BT.709
    Коэффициенты матрицы : BT.601
    Аудио
    Идентификатор : 2
    Формат : AAC
    Формат/Информация : Advanced Audio Codec
    Профиль формата : LC
    Идентификатор кодека : mp4a-40-2
    Продолжительность : 3 м. 9 с.
    Продолжительность оригинала : 3 м. 9 с.
    Вид битрейта : Постоянный
    Битрейт : 128 Кбит/сек
    Каналы : 2 канала
    Расположение каналов : Front: L R
    Частота : 44, 1 КГц
    Частота кадров : 43, 066 кадра/сек (1024 SPF)
    Метод сжатия : С потерями
    Размер потока : 2, 84 Мбайт (8%)
    Размер потока оригинала : 2, 84 Мбайт (8%)
    Язык : English
    Дата кодирования : UTC 2011-04-21 20: 00: 48
    Дата пометки : UTC 2011-04-21 20: 00: 50
    Общее
    Полное имя : I: РазноеЗдоровьеTRXTRXTV - Flow MobilityWeek 1TRX TV Flow Mobility - WK1_Tip.m4v
    Формат : MPEG-4
    Идентификатор кодека : M4V (M4V /M4A /mp42/isom)
    Размер файла : 25, 8 Мбайт
    Продолжительность : 2 м. 16 с.
    Общий поток : 1591 Кбит/сек
    Дата кодирования : UTC 2011-04-21 19: 49: 42
    Дата пометки : UTC 2011-04-21 19: 49: 43
    Видео
    Идентификатор : 1
    Формат : AVC
    Формат/Информация : Advanced Video Codec
    Профиль формата : Baseline@L3
    Настройки формата : 1 Ref Frames
    Параметр CABAC формата : Нет
    Параметр RefFrames формата : 1 кадр
    Идентификатор кодека : avc1
    Идентификатор кодека/Информация : Advanced Video Coding
    Продолжительность : 2 м. 16 с.
    Битрейт : 1462 Кбит/сек
    Ширина : 640 пикселей
    Высота : 360 пикселей
    Соотношение сторон : 16: 9
    Режим частоты кадров : Постоянный
    Частота кадров : 23, 976 (23976/1000) кадра/сек
    Цветовое пространство : YUV
    Субдискретизация насыщенности : 4: 2: 0
    Битовая глубина : 8 бит
    Тип развёртки : Прогрессивная
    Бит/(Пиксели*Кадры) : 0.265
    Размер потока : 23, 7 Мбайт (92%)
    Язык : English
    Дата кодирования : UTC 2011-04-21 19: 49: 42
    Дата пометки : UTC 2011-04-21 19: 49: 43
    Цветовой диапазон : Limited
    Основные цвета : BT.601 NTSC
    Характеристики трансфера : BT.709
    Коэффициенты матрицы : BT.601
    Аудио
    Идентификатор : 2
    Формат : AAC
    Формат/Информация : Advanced Audio Codec
    Профиль формата : LC
    Идентификатор кодека : mp4a-40-2
    Продолжительность : 2 м. 16 с.
    Продолжительность оригинала : 2 м. 16 с.
    Вид битрейта : Постоянный
    Битрейт : 128 Кбит/сек
    Каналы : 2 канала
    Расположение каналов : Front: L R
    Частота : 44, 1 КГц
    Частота кадров : 43, 066 кадра/сек (1024 SPF)
    Метод сжатия : С потерями
    Размер потока : 2, 04 Мбайт (8%)
    Размер потока оригинала : 2, 04 Мбайт (8%)
    Язык : English
    Дата кодирования : UTC 2011-04-21 19: 49: 42
    Дата пометки : UTC 2011-04-21 19: 49: 43
    Общее
    Полное имя : I: РазноеЗдоровьеTRXTRXTV - Flow MobilityWeek 2TRX TV Flow Mobility - WK2_Movement.m4v
    Формат : MPEG-4
    Идентификатор кодека : M4V (M4V /M4A /mp42/isom)
    Размер файла : 21, 2 Мбайт
    Продолжительность : 1 м. 53 с.
    Общий поток : 1568 Кбит/сек
    Дата кодирования : UTC 2011-04-21 20: 14: 57
    Дата пометки : UTC 2011-04-21 20: 14: 58
    Видео
    Идентификатор : 1
    Формат : AVC
    Формат/Информация : Advanced Video Codec
    Профиль формата : Baseline@L3
    Настройки формата : 1 Ref Frames
    Параметр CABAC формата : Нет
    Параметр RefFrames формата : 1 кадр
    Идентификатор кодека : avc1
    Идентификатор кодека/Информация : Advanced Video Coding
    Продолжительность : 1 м. 53 с.
    Битрейт : 1438 Кбит/сек
    Ширина : 640 пикселей
    Высота : 360 пикселей
    Соотношение сторон : 16: 9
    Режим частоты кадров : Постоянный
    Частота кадров : 23, 976 (23976/1000) кадра/сек
    Цветовое пространство : YUV
    Субдискретизация насыщенности : 4: 2: 0
    Битовая глубина : 8 бит
    Тип развёртки : Прогрессивная
    Бит/(Пиксели*Кадры) : 0.260
    Размер потока : 19, 5 Мбайт (92%)
    Язык : English
    Дата кодирования : UTC 2011-04-21 20: 14: 57
    Дата пометки : UTC 2011-04-21 20: 14: 58
    Цветовой диапазон : Limited
    Основные цвета : BT.601 NTSC
    Характеристики трансфера : BT.709
    Коэффициенты матрицы : BT.601
    Аудио
    Идентификатор : 2
    Формат : AAC
    Формат/Информация : Advanced Audio Codec
    Профиль формата : LC
    Идентификатор кодека : mp4a-40-2
    Продолжительность : 1 м. 53 с.
    Продолжительность оригинала : 1 м. 53 с.
    Вид битрейта : Постоянный
    Битрейт : 128 Кбит/сек
    Каналы : 2 канала
    Расположение каналов : Front: L R
    Частота : 44, 1 КГц
    Частота кадров : 43, 066 кадра/сек (1024 SPF)
    Метод сжатия : С потерями
    Размер потока : 1, 71 Мбайт (8%)
    Размер потока оригинала : 1, 71 Мбайт (8%)
    Язык : English
    Дата кодирования : UTC 2011-04-21 20: 14: 57
    Дата пометки : UTC 2011-04-21 20: 14: 58
    Общее
    Полное имя : I: РазноеЗдоровьеTRXTRXTV - Flow MobilityWeek 2TRX TV Flow Mobility - WK2_Sequence.m4v
    Формат : MPEG-4
    Идентификатор кодека : M4V (M4V /M4A /mp42/isom)
    Размер файла : 36, 0 Мбайт
    Продолжительность : 3 м. 7 с.
    Общий поток : 1611 Кбит/сек
    Дата кодирования : UTC 2011-04-21 20: 58: 04
    Дата пометки : UTC 2011-04-21 20: 58: 05
    Видео
    Идентификатор : 1
    Формат : AVC
    Формат/Информация : Advanced Video Codec
    Профиль формата : Baseline@L3
    Настройки формата : 1 Ref Frames
    Параметр CABAC формата : Нет
    Параметр RefFrames формата : 1 кадр
    Идентификатор кодека : avc1
    Идентификатор кодека/Информация : Advanced Video Coding
    Продолжительность : 3 м. 7 с.
    Битрейт : 1481 Кбит/сек
    Ширина : 640 пикселей
    Высота : 360 пикселей
    Соотношение сторон : 16: 9
    Режим частоты кадров : Постоянный
    Частота кадров : 23, 976 (23976/1000) кадра/сек
    Цветовое пространство : YUV
    Субдискретизация насыщенности : 4: 2: 0
    Битовая глубина : 8 бит
    Тип развёртки : Прогрессивная
    Бит/(Пиксели*Кадры) : 0.268
    Размер потока : 33, 1 Мбайт (92%)
    Язык : English
    Дата кодирования : UTC 2011-04-21 20: 58: 04
    Дата пометки : UTC 2011-04-21 20: 58: 05
    Цветовой диапазон : Limited
    Основные цвета : BT.601 NTSC
    Характеристики трансфера : BT.709
    Коэффициенты матрицы : BT.601
    Аудио
    Идентификатор : 2
    Формат : AAC
    Формат/Информация : Advanced Audio Codec
    Профиль формата : LC
    Идентификатор кодека : mp4a-40-2
    Продолжительность : 3 м. 7 с.
    Продолжительность оригинала : 3 м. 7 с.
    Вид битрейта : Постоянный
    Битрейт : 128 Кбит/сек
    Каналы : 2 канала
    Расположение каналов : Front: L R
    Частота : 44, 1 КГц
    Частота кадров : 43, 066 кадра/сек (1024 SPF)
    Метод сжатия : С потерями
    Размер потока : 2, 84 Мбайт (8%)
    Размер потока оригинала : 2, 84 Мбайт (8%)
    Язык : English
    Дата кодирования : UTC 2011-04-21 20: 58: 04
    Дата пометки : UTC 2011-04-21 20: 58: 05
    Общее
    Полное имя : I: РазноеЗдоровьеTRXTRXTV - Flow MobilityWeek 2TRX TV Flow Mobility - WK2_Tip.m4v
    Формат : MPEG-4
    Идентификатор кодека : M4V (M4V /M4A /mp42/isom)
    Размер файла : 29, 2 Мбайт
    Продолжительность : 2 м. 29 с.
    Общий поток : 1637 Кбит/сек
    Дата кодирования : UTC 2011-04-21 20: 31: 38
    Дата пометки : UTC 2011-04-21 20: 31: 39
    Видео
    Идентификатор : 1
    Формат : AVC
    Формат/Информация : Advanced Video Codec
    Профиль формата : Baseline@L3
    Настройки формата : 1 Ref Frames
    Параметр CABAC формата : Нет
    Параметр RefFrames формата : 1 кадр
    Идентификатор кодека : avc1
    Идентификатор кодека/Информация : Advanced Video Coding
    Продолжительность : 2 м. 29 с.
    Битрейт : 1509 Кбит/сек
    Ширина : 640 пикселей
    Высота : 360 пикселей
    Соотношение сторон : 16: 9
    Режим частоты кадров : Постоянный
    Частота кадров : 23, 976 (23976/1000) кадра/сек
    Цветовое пространство : YUV
    Субдискретизация насыщенности : 4: 2: 0
    Битовая глубина : 8 бит
    Тип развёртки : Прогрессивная
    Бит/(Пиксели*Кадры) : 0.273
    Размер потока : 26, 9 Мбайт (92%)
    Язык : English
    Дата кодирования : UTC 2011-04-21 20: 31: 38
    Дата пометки : UTC 2011-04-21 20: 31: 39
    Цветовой диапазон : Limited
    Основные цвета : BT.601 NTSC
    Характеристики трансфера : BT.709
    Коэффициенты матрицы : BT.601
    Аудио
    Идентификатор : 2
    Формат : AAC
    Формат/Информация : Advanced Audio Codec
    Профиль формата : LC
    Идентификатор кодека : mp4a-40-2
    Продолжительность : 2 м. 29 с.
    Продолжительность оригинала : 2 м. 29 с.
    Вид битрейта : Постоянный
    Битрейт : 128 Кбит/сек
    Каналы : 2 канала
    Расположение каналов : Front: L R
    Частота : 44, 1 КГц
    Частота кадров : 43, 066 кадра/сек (1024 SPF)
    Метод сжатия : С потерями
    Размер потока : 2, 22 Мбайт (8%)
    Размер потока оригинала : 2, 22 Мбайт (8%)
    Язык : English
    Дата кодирования : UTC 2011-04-21 20: 31: 38
    Дата пометки : UTC 2011-04-21 20: 31: 39
    Общее
    Полное имя : I: РазноеЗдоровьеTRXTRXTV - Flow MobilityWeek 3TRX TV Flow Mobility - WK3_Movement.m4v
    Формат : MPEG-4
    Идентификатор кодека : M4V (M4V /M4A /mp42/isom)
    Размер файла : 22, 6 Мбайт
    Продолжительность : 1 м. 57 с.
    Общий поток : 1615 Кбит/сек
    Дата кодирования : UTC 2011-04-21 21: 12: 14
    Дата пометки : UTC 2011-04-21 21: 12: 15
    Видео
    Идентификатор : 1
    Формат : AVC
    Формат/Информация : Advanced Video Codec
    Профиль формата : Baseline@L3
    Настройки формата : 1 Ref Frames
    Параметр CABAC формата : Нет
    Параметр RefFrames формата : 1 кадр
    Идентификатор кодека : avc1
    Идентификатор кодека/Информация : Advanced Video Coding
    Продолжительность : 1 м. 57 с.
    Битрейт : 1489 Кбит/сек
    Ширина : 640 пикселей
    Высота : 360 пикселей
    Соотношение сторон : 16: 9
    Режим частоты кадров : Постоянный
    Частота кадров : 23, 976 (23976/1000) кадра/сек
    Цветовое пространство : YUV
    Субдискретизация насыщенности : 4: 2: 0
    Битовая глубина : 8 бит
    Тип развёртки : Прогрессивная
    Бит/(Пиксели*Кадры) : 0.270
    Размер потока : 20, 9 Мбайт (92%)
    Язык : English
    Дата кодирования : UTC 2011-04-21 21: 12: 13
    Дата пометки : UTC 2011-04-21 21: 12: 15
    Цветовой диапазон : Limited
    Основные цвета : BT.601 NTSC
    Характеристики трансфера : BT.709
    Коэффициенты матрицы : BT.601
    Аудио
    Идентификатор : 2
    Формат : AAC
    Формат/Информация : Advanced Audio Codec
    Профиль формата : LC
    Идентификатор кодека : mp4a-40-2
    Продолжительность : 1 м. 57 с.
    Продолжительность оригинала : 1 м. 57 с.
    Вид битрейта : Постоянный
    Битрейт : 122 Кбит/сек
    Номинальный битрейт : 128 Кбит/сек
    Каналы : 2 канала
    Расположение каналов : Front: L R
    Частота : 44, 1 КГц
    Частота кадров : 43, 066 кадра/сек (1024 SPF)
    Метод сжатия : С потерями
    Размер потока : 1, 71 Мбайт (8%)
    Размер потока оригинала : 1, 71 Мбайт (8%)
    Язык : English
    Дата кодирования : UTC 2011-04-21 21: 12: 14
    Дата пометки : UTC 2011-04-21 21: 12: 15
    Общее
    Полное имя : I: РазноеЗдоровьеTRXTRXTV - Flow MobilityWeek 3TRX TV Flow Mobility - WK3_Sequence.m4v
    Формат : MPEG-4
    Идентификатор кодека : M4V (M4V /M4A /mp42/isom)
    Размер файла : 37, 6 Мбайт
    Продолжительность : 3 м. 6 с.
    Общий поток : 1694 Кбит/сек
    Дата кодирования : UTC 2011-04-21 21: 30: 23
    Дата пометки : UTC 2011-04-21 21: 30: 24
    Видео
    Идентификатор : 1
    Формат : AVC
    Формат/Информация : Advanced Video Codec
    Профиль формата : Baseline@L3
    Настройки формата : 1 Ref Frames
    Параметр CABAC формата : Нет
    Параметр RefFrames формата : 1 кадр
    Идентификатор кодека : avc1
    Идентификатор кодека/Информация : Advanced Video Coding
    Продолжительность : 3 м. 6 с.
    Битрейт : 1568 Кбит/сек
    Ширина : 640 пикселей
    Высота : 360 пикселей
    Соотношение сторон : 16: 9
    Режим частоты кадров : Постоянный
    Частота кадров : 23, 976 (23976/1000) кадра/сек
    Цветовое пространство : YUV
    Субдискретизация насыщенности : 4: 2: 0
    Битовая глубина : 8 бит
    Тип развёртки : Прогрессивная
    Бит/(Пиксели*Кадры) : 0.284
    Размер потока : 34, 8 Мбайт (93%)
    Язык : English
    Дата кодирования : UTC 2011-04-21 21: 30: 22
    Дата пометки : UTC 2011-04-21 21: 30: 24
    Цветовой диапазон : Limited
    Основные цвета : BT.601 NTSC
    Характеристики трансфера : BT.709
    Коэффициенты матрицы : BT.601
    Аудио
    Идентификатор : 2
    Формат : AAC
    Формат/Информация : Advanced Audio Codec
    Профиль формата : LC
    Идентификатор кодека : mp4a-40-2
    Продолжительность : 3 м. 6 с.
    Продолжительность оригинала : 3 м. 6 с.
    Вид битрейта : Постоянный
    Битрейт : 128 Кбит/сек
    Каналы : 2 канала
    Расположение каналов : Front: L R
    Частота : 44, 1 КГц
    Частота кадров : 43, 066 кадра/сек (1024 SPF)
    Метод сжатия : С потерями
    Размер потока : 2, 72 Мбайт (7%)
    Размер потока оригинала : 2, 72 Мбайт (7%)
    Язык : English
    Дата кодирования : UTC 2011-04-21 21: 30: 22
    Дата пометки : UTC 2011-04-21 21: 30: 24
    Общее
    Полное имя : I: РазноеЗдоровьеTRXTRXTV - Flow MobilityWeek 3TRX TV Flow Mobility - WK3_Tip.m4v
    Формат : MPEG-4
    Идентификатор кодека : M4V (M4V /M4A /mp42/isom)
    Размер файла : 23, 4 Мбайт
    Продолжительность : 1 м. 55 с.
    Общий поток : 1692 Кбит/сек
    Дата кодирования : UTC 2011-04-21 21: 19: 27
    Дата пометки : UTC 2011-04-21 21: 19: 28
    Видео
    Идентификатор : 1
    Формат : AVC
    Формат/Информация : Advanced Video Codec
    Профиль формата : Baseline@L3
    Настройки формата : 1 Ref Frames
    Параметр CABAC формата : Нет
    Параметр RefFrames формата : 1 кадр
    Идентификатор кодека : avc1
    Идентификатор кодека/Информация : Advanced Video Coding
    Продолжительность : 1 м. 55 с.
    Битрейт : 1563 Кбит/сек
    Ширина : 640 пикселей
    Высота : 360 пикселей
    Соотношение сторон : 16: 9
    Режим частоты кадров : Постоянный
    Частота кадров : 23, 976 (23976/1000) кадра/сек
    Цветовое пространство : YUV
    Субдискретизация насыщенности : 4: 2: 0
    Битовая глубина : 8 бит
    Тип развёртки : Прогрессивная
    Бит/(Пиксели*Кадры) : 0.283
    Размер потока : 21, 6 Мбайт (92%)
    Язык : English
    Дата кодирования : UTC 2011-04-21 21: 19: 27
    Дата пометки : UTC 2011-04-21 21: 19: 28
    Цветовой диапазон : Limited
    Основные цвета : BT.601 NTSC
    Характеристики трансфера : BT.709
    Коэффициенты матрицы : BT.601
    Аудио
    Идентификатор : 2
    Формат : AAC
    Формат/Информация : Advanced Audio Codec
    Профиль формата : LC
    Идентификатор кодека : mp4a-40-2
    Продолжительность : 1 м. 55 с.
    Продолжительность оригинала : 1 м. 55 с.
    Вид битрейта : Постоянный
    Битрейт : 128 Кбит/сек
    Каналы : 2 канала
    Расположение каналов : Front: L R
    Частота : 44, 1 КГц
    Частота кадров : 43, 066 кадра/сек (1024 SPF)
    Метод сжатия : С потерями
    Размер потока : 1, 74 Мбайт (7%)
    Размер потока оригинала : 1, 74 Мбайт (7%)
    Язык : English
    Дата кодирования : UTC 2011-04-21 21: 19: 27
    Дата пометки : UTC 2011-04-21 21: 19: 28
    Общее
    Полное имя : I: РазноеЗдоровьеTRXTRXTV - Flow MobilityWeek 4TRX TV Flow Mobility - WK4_Movement.m4v
    Формат : MPEG-4
    Идентификатор кодека : M4V (M4V /M4A /mp42/isom)
    Размер файла : 19, 4 Мбайт
    Продолжительность : 1 м. 40 с.
    Общий поток : 1617 Кбит/сек
    Дата кодирования : UTC 2011-04-21 22: 01: 09
    Дата пометки : UTC 2011-04-21 22: 01: 10
    Видео
    Идентификатор : 1
    Формат : AVC
    Формат/Информация : Advanced Video Codec
    Профиль формата : Baseline@L3
    Настройки формата : 1 Ref Frames
    Параметр CABAC формата : Нет
    Параметр RefFrames формата : 1 кадр
    Идентификатор кодека : avc1
    Идентификатор кодека/Информация : Advanced Video Coding
    Продолжительность : 1 м. 40 с.
    Битрейт : 1488 Кбит/сек
    Ширина : 640 пикселей
    Высота : 360 пикселей
    Соотношение сторон : 16: 9
    Режим частоты кадров : Постоянный
    Частота кадров : 23, 976 (23976/1000) кадра/сек
    Цветовое пространство : YUV
    Субдискретизация насыщенности : 4: 2: 0
    Битовая глубина : 8 бит
    Тип развёртки : Прогрессивная
    Бит/(Пиксели*Кадры) : 0.269
    Размер потока : 17, 9 Мбайт (92%)
    Язык : English
    Дата кодирования : UTC 2011-04-21 22: 01: 09
    Дата пометки : UTC 2011-04-21 22: 01: 10
    Цветовой диапазон : Limited
    Основные цвета : BT.601 NTSC
    Характеристики трансфера : BT.709
    Коэффициенты матрицы : BT.601
    Аудио
    Идентификатор : 2
    Формат : AAC
    Формат/Информация : Advanced Audio Codec
    Профиль формата : LC
    Идентификатор кодека : mp4a-40-2
    Продолжительность : 1 м. 40 с.
    Продолжительность оригинала : 1 м. 40 с.
    Вид битрейта : Постоянный
    Битрейт : 128 Кбит/сек
    Каналы : 2 канала
    Расположение каналов : Front: L R
    Частота : 44, 1 КГц
    Частота кадров : 43, 066 кадра/сек (1024 SPF)
    Метод сжатия : С потерями
    Размер потока : 1, 51 Мбайт (8%)
    Размер потока оригинала : 1, 51 Мбайт (8%)
    Язык : English
    Дата кодирования : UTC 2011-04-21 22: 01: 09
    Дата пометки : UTC 2011-04-21 22: 01: 10
    Общее
    Полное имя : I: РазноеЗдоровьеTRXTRXTV - Flow MobilityWeek 4TRX TV Flow Mobility - WK4_Sequence.m4v
    Формат : MPEG-4
    Идентификатор кодека : M4V (M4V /M4A /mp42/isom)
    Размер файла : 29, 7 Мбайт
    Продолжительность : 2 м. 30 с.
    Общий поток : 1656 Кбит/сек
    Дата кодирования : UTC 2011-04-21 21: 51: 04
    Дата пометки : UTC 2011-04-21 21: 51: 05
    Видео
    Идентификатор : 1
    Формат : AVC
    Формат/Информация : Advanced Video Codec
    Профиль формата : Baseline@L3
    Настройки формата : 1 Ref Frames
    Параметр CABAC формата : Нет
    Параметр RefFrames формата : 1 кадр
    Идентификатор кодека : avc1
    Идентификатор кодека/Информация : Advanced Video Coding
    Продолжительность : 2 м. 30 с.
    Битрейт : 1525 Кбит/сек
    Ширина : 640 пикселей
    Высота : 360 пикселей
    Соотношение сторон : 16: 9
    Режим частоты кадров : Постоянный
    Частота кадров : 23, 976 (23976/1000) кадра/сек
    Цветовое пространство : YUV
    Субдискретизация насыщенности : 4: 2: 0
    Битовая глубина : 8 бит
    Тип развёртки : Прогрессивная
    Бит/(Пиксели*Кадры) : 0.276
    Размер потока : 27, 3 Мбайт (92%)
    Язык : English
    Дата кодирования : UTC 2011-04-21 21: 51: 04
    Дата пометки : UTC 2011-04-21 21: 51: 05
    Цветовой диапазон : Limited
    Основные цвета : BT.601 NTSC
    Характеристики трансфера : BT.709
    Коэффициенты матрицы : BT.601
    Аудио
    Идентификатор : 2
    Формат : AAC
    Формат/Информация : Advanced Audio Codec
    Профиль формата : LC
    Идентификатор кодека : mp4a-40-2
    Продолжительность : 2 м. 30 с.
    Продолжительность оригинала : 2 м. 30 с.
    Вид битрейта : Постоянный
    Битрейт : 128 Кбит/сек
    Каналы : 2 канала
    Расположение каналов : Front: L R
    Частота : 44, 1 КГц
    Частота кадров : 43, 066 кадра/сек (1024 SPF)
    Метод сжатия : С потерями
    Размер потока : 2, 28 Мбайт (8%)
    Размер потока оригинала : 2, 28 Мбайт (8%)
    Язык : English
    Дата кодирования : UTC 2011-04-21 21: 51: 04
    Дата пометки : UTC 2011-04-21 21: 51: 05
    Общее
    Полное имя : I: РазноеЗдоровьеTRXTRXTV - Flow MobilityWeek 4TRX TV Flow Mobility - WK4_Tip.m4v
    Формат : MPEG-4
    Идентификатор кодека : M4V (M4V /M4A /mp42/isom)
    Размер файла : 26, 9 Мбайт
    Продолжительность : 2 м. 23 с.
    Общий поток : 1570 Кбит/сек
    Дата кодирования : UTC 2011-04-21 22: 17: 44
    Дата пометки : UTC 2011-04-21 22: 17: 45
    Видео
    Идентификатор : 1
    Формат : AVC
    Формат/Информация : Advanced Video Codec
    Профиль формата : Baseline@L3
    Настройки формата : 1 Ref Frames
    Параметр CABAC формата : Нет
    Параметр RefFrames формата : 1 кадр
    Идентификатор кодека : avc1
    Идентификатор кодека/Информация : Advanced Video Coding
    Продолжительность : 2 м. 23 с.
    Битрейт : 1441 Кбит/сек
    Ширина : 640 пикселей
    Высота : 360 пикселей
    Соотношение сторон : 16: 9
    Режим частоты кадров : Постоянный
    Частота кадров : 23, 976 (23976/1000) кадра/сек
    Цветовое пространство : YUV
    Субдискретизация насыщенности : 4: 2: 0
    Битовая глубина : 8 бит
    Тип развёртки : Прогрессивная
    Бит/(Пиксели*Кадры) : 0.261
    Размер потока : 24, 7 Мбайт (92%)
    Язык : English
    Дата кодирования : UTC 2011-04-21 22: 17: 43
    Дата пометки : UTC 2011-04-21 22: 17: 45
    Цветовой диапазон : Limited
    Основные цвета : BT.601 NTSC
    Характеристики трансфера : BT.709
    Коэффициенты матрицы : BT.601
    Аудио
    Идентификатор : 2
    Формат : AAC
    Формат/Информация : Advanced Audio Codec
    Профиль формата : LC
    Идентификатор кодека : mp4a-40-2
    Продолжительность : 2 м. 23 с.
    Продолжительность оригинала : 2 м. 23 с.
    Вид битрейта : Постоянный
    Битрейт : 128 Кбит/сек
    Каналы : 2 канала
    Расположение каналов : Front: L R
    Частота : 44, 1 КГц
    Частота кадров : 43, 066 кадра/сек (1024 SPF)
    Метод сжатия : С потерями
    Размер потока : 2, 15 Мбайт (8%)
    Размер потока оригинала : 2, 15 Мбайт (8%)
    Язык : English
    Дата кодирования : UTC 2011-04-21 22: 17: 43
    Дата пометки : UTC 2011-04-21 22: 17: 45
    Скриншоты:


    Время раздачи: Круглосуточно (до появления первых 3-5 скачавших)


    TRX TV | Flow Mobility (2011) WEB-DLRip [H.264][EN]
    Рейтинг →
     (голосов: 1, оценка 4/5, голосовать можно 1 раз )

    Другие торренты по теме:

  • Cocktail Flow - Drink Recipes v1.2.1 - Справочник бармена в мобильном телефоне (04.06.2013) <En / Rus> скачать через торрент бесплатно
  • Dhamika - Energy Flow (2015) [FLAC|Lossless|WEB-DL]<Psybient, Downtempo, Ambient, Progressive Trance>
  • Flow (2007) [PS3] [USA] 1.90 [Cobra ODE / E3 ODE PRO ISO] [PSN / 2.00 / 1 DLC] [En] скачать через торрент бесплатно
  • VA - Flow One (2CD) (2015) [FLAC|tracks + .cue]<Progressive Trance> скачать через торрент бесплатно
  • VA - Om Yoga Vol. 1, 2: Modern Music for Vinyasa / Flow (2011-2013) 2CD [MP3|320 кб / с]<Lounge, Chillout, New Age> скачать через торрент бесплатно
  • Dubtrak - Be In The Flow (2015) [OGG| 444-531 кб / с]<Electronic, Ambient, Downtempo> скачать через торрент бесплатно
  • mSdoS - Cosmic Flow (2015) [MP3|320 кб / с]<Drum & Bass, Liquid Funk> скачать через торрент бесплатно
  • Company Flow - Funcrusher Plus (1997) [FLAC|Lossless|tracks + .cue] <Hip Hop>


    • Комментарии (0):

      Информация

      Информация

        Посетители, находящиеся в группе Гости, не могут оставлять комментарии в данной новости.

        ↓ Меню




        ↓ Опрос

        Вы добавили сайт в закладки?
        Да
        Нет


        Top 10 за месяц (Книги)