.
Авторизация | Регистрация
Хочешь лучшие торренты? Добавь свой email!
Добавить

Торрент скачать бесплатно

» » TRX TV | 3D Strong (2011) WEB-DLRip [H.264][EN] торрент скачать бесплатно


    TRX TV | 3D Strong (2011) WEB-DLRip [H.264][EN] торрент скачать бесплатно

    Опубликовал: Админ | Дата: 2-04-2018, 05:00 | .torrent скачали: 0

    TRX TV | 3D Strong (2011) WEB-DLRip [H.264][EN]Автор (режиссер): TRX TV
    Производство: TRX TV
    Жанр: Функциональный тренинг

    Описание

    Выпуск TRX TV по тренировкам на петлях для улучшения подвижности в современной жизни
    Продолжительность: 01: 03: 04
    Качество видео: WEB-DLRip
    Перевод: Отсутствует
    Язык озвучки: Английский
    Видео: AVC/H.264, 640x360, ~1467 Kbps
    Аудио: AAC, 2 ch, 128 Kbps

    Общее
    Полное имя : I: РазноеЗдоровьеTRXTRXTV - 3D StrongTRXTV_Mar11_3D_VisualGuide.pdf
    Формат : PDF
    Версия формата : 1.5
    Размер файла : 705 Кбайт
    Текст
    Формат : PDF
    Общее
    Полное имя : I: РазноеЗдоровьеTRXTRXTV - 3D StrongTRXTV_Mar11_Strength_Download.m4v
    Формат : MPEG-4
    Идентификатор кодека : M4V (M4V /M4A /mp42/isom)
    Размер файла : 410 Мбайт
    Продолжительность : 35 м. 56 с.
    Режим общего битрейта : Переменный
    Общий поток : 1596 Кбит/сек
    Дата кодирования : UTC 2011-02-17 04: 25: 49
    Дата пометки : UTC 2011-02-17 04: 26: 22
    Видео
    Идентификатор : 2
    Формат : AVC
    Формат/Информация : Advanced Video Codec
    Профиль формата : Baseline@L3
    Настройки формата : 1 Ref Frames
    Параметр CABAC формата : Нет
    Параметр RefFrames формата : 1 кадр
    Идентификатор кодека : avc1
    Идентификатор кодека/Информация : Advanced Video Coding
    Продолжительность : 35 м. 56 с.
    Битрейт : 1467 Кбит/сек
    Ширина : 640 пикселей
    Высота : 360 пикселей
    Соотношение сторон : 16: 9
    Режим частоты кадров : Постоянный
    Частота кадров : 23, 976 (23976/1000) кадра/сек
    Цветовое пространство : YUV
    Субдискретизация насыщенности : 4: 2: 0
    Битовая глубина : 8 бит
    Тип развёртки : Прогрессивная
    Бит/(Пиксели*Кадры) : 0.266
    Размер потока : 377 Мбайт (92%)
    Язык : English
    Дата кодирования : UTC 2011-02-17 04: 25: 46
    Дата пометки : UTC 2011-02-17 04: 26: 22
    Цветовой диапазон : Limited
    Основные цвета : BT.601 NTSC
    Характеристики трансфера : BT.709
    Коэффициенты матрицы : BT.601
    Аудио
    Идентификатор : 3
    Формат : AAC
    Формат/Информация : Advanced Audio Codec
    Профиль формата : LC
    Идентификатор кодека : mp4a-40-2
    Продолжительность : 35 м. 56 с.
    Продолжительность оригинала : 35 м. 56 с.
    Вид битрейта : Постоянный
    Битрейт : 128 Кбит/сек
    Каналы : 2 канала
    Расположение каналов : Front: L R
    Частота : 44, 1 КГц
    Частота кадров : 43, 066 кадра/сек (1024 SPF)
    Метод сжатия : С потерями
    Размер потока : 32, 2 Мбайт (8%)
    Размер потока оригинала : 32, 2 Мбайт (8%)
    Язык : English
    Дата кодирования : UTC 2011-02-17 04: 25: 47
    Дата пометки : UTC 2011-02-17 04: 26: 22
    Menus : 1
    Текст
    Идентификатор : 1
    Формат : Timed Text
    Идентификатор кодека : tx3g
    Продолжительность : 35 м. 56 с.
    Вид битрейта : Переменный
    Битрейт : 1 бит/сек
    Размер потока : 346 байт (0%)
    Язык : English
    Default : Нет
    Forced : Нет
    Дата кодирования : UTC 2011-02-17 04: 25: 46
    Дата пометки : UTC 2011-02-17 04: 26: 22
    Menu For : 3
    Общее
    Полное имя : I: РазноеЗдоровьеTRXTRXTV - 3D StrongWeek 1TRXTV_Mar11_Strength_WK1_Movement.m4v
    Формат : MPEG-4
    Идентификатор кодека : M4V (M4V /M4A /mp42/isom)
    Размер файла : 21, 5 Мбайт
    Продолжительность : 1 м. 48 с.
    Общий поток : 1661 Кбит/сек
    Дата кодирования : UTC 2011-02-17 20: 47: 37
    Дата пометки : UTC 2011-02-17 20: 47: 40
    Видео
    Идентификатор : 1
    Формат : AVC
    Формат/Информация : Advanced Video Codec
    Профиль формата : Baseline@L3
    Настройки формата : 1 Ref Frames
    Параметр CABAC формата : Нет
    Параметр RefFrames формата : 1 кадр
    Параметр GOP формата : M=1, N=120
    Идентификатор кодека : avc1
    Идентификатор кодека/Информация : Advanced Video Coding
    Продолжительность : 1 м. 48 с.
    Битрейт : 1531 Кбит/сек
    Ширина : 640 пикселей
    Высота : 360 пикселей
    Соотношение сторон : 16: 9
    Режим частоты кадров : Постоянный
    Частота кадров : 23, 976 (23976/1000) кадра/сек
    Цветовое пространство : YUV
    Субдискретизация насыщенности : 4: 2: 0
    Битовая глубина : 8 бит
    Тип развёртки : Прогрессивная
    Бит/(Пиксели*Кадры) : 0.277
    Размер потока : 19, 8 Мбайт (92%)
    Язык : English
    Дата кодирования : UTC 2011-02-17 20: 47: 37
    Дата пометки : UTC 2011-02-17 20: 47: 40
    Цветовой диапазон : Limited
    Основные цвета : BT.601 NTSC
    Характеристики трансфера : BT.709
    Коэффициенты матрицы : BT.601
    Аудио
    Идентификатор : 2
    Формат : AAC
    Формат/Информация : Advanced Audio Codec
    Профиль формата : LC
    Идентификатор кодека : mp4a-40-2
    Продолжительность : 1 м. 48 с.
    Продолжительность оригинала : 1 м. 48 с.
    Вид битрейта : Постоянный
    Битрейт : 128 Кбит/сек
    Каналы : 2 канала
    Расположение каналов : Front: L R
    Частота : 44, 1 КГц
    Частота кадров : 43, 066 кадра/сек (1024 SPF)
    Метод сжатия : С потерями
    Размер потока : 1, 64 Мбайт (8%)
    Размер потока оригинала : 1, 64 Мбайт (8%)
    Язык : English
    Дата кодирования : UTC 2011-02-17 20: 47: 37
    Дата пометки : UTC 2011-02-17 20: 47: 40
    Общее
    Полное имя : I: РазноеЗдоровьеTRXTRXTV - 3D StrongWeek 1TRXTV_Mar11_Strength_WK1_Sequence.m4v
    Формат : MPEG-4
    Идентификатор кодека : M4V (M4V /M4A /mp42/isom)
    Размер файла : 41, 3 Мбайт
    Продолжительность : 3 м. 24 с.
    Общий поток : 1699 Кбит/сек
    Дата кодирования : UTC 2011-02-17 20: 30: 48
    Дата пометки : UTC 2011-02-17 20: 30: 53
    Видео
    Идентификатор : 1
    Формат : AVC
    Формат/Информация : Advanced Video Codec
    Профиль формата : Baseline@L3
    Настройки формата : 1 Ref Frames
    Параметр CABAC формата : Нет
    Параметр RefFrames формата : 1 кадр
    Параметр GOP формата : M=1, N=120
    Идентификатор кодека : avc1
    Идентификатор кодека/Информация : Advanced Video Coding
    Продолжительность : 3 м. 24 с.
    Битрейт : 1570 Кбит/сек
    Ширина : 640 пикселей
    Высота : 360 пикселей
    Соотношение сторон : 16: 9
    Режим частоты кадров : Постоянный
    Частота кадров : 23, 976 (23976/1000) кадра/сек
    Цветовое пространство : YUV
    Субдискретизация насыщенности : 4: 2: 0
    Битовая глубина : 8 бит
    Тип развёртки : Прогрессивная
    Бит/(Пиксели*Кадры) : 0.284
    Размер потока : 38, 2 Мбайт (92%)
    Язык : English
    Дата кодирования : UTC 2011-02-17 20: 30: 47
    Дата пометки : UTC 2011-02-17 20: 30: 53
    Цветовой диапазон : Limited
    Основные цвета : BT.601 NTSC
    Характеристики трансфера : BT.709
    Коэффициенты матрицы : BT.601
    Аудио
    Идентификатор : 2
    Формат : AAC
    Формат/Информация : Advanced Audio Codec
    Профиль формата : LC
    Идентификатор кодека : mp4a-40-2
    Продолжительность : 3 м. 24 с.
    Продолжительность оригинала : 3 м. 24 с.
    Вид битрейта : Постоянный
    Битрейт : 128 Кбит/сек
    Каналы : 2 канала
    Расположение каналов : Front: L R
    Частота : 44, 1 КГц
    Частота кадров : 43, 066 кадра/сек (1024 SPF)
    Метод сжатия : С потерями
    Размер потока : 3, 05 Мбайт (7%)
    Размер потока оригинала : 3, 05 Мбайт (7%)
    Язык : English
    Дата кодирования : UTC 2011-02-17 20: 30: 47
    Дата пометки : UTC 2011-02-17 20: 30: 53
    Общее
    Полное имя : I: РазноеЗдоровьеTRXTRXTV - 3D StrongWeek 1TRXTV_Mar11_Strength_WK1_Tip.m4v
    Формат : MPEG-4
    Идентификатор кодека : M4V (M4V /M4A /mp42/isom)
    Размер файла : 29, 3 Мбайт
    Продолжительность : 2 м. 34 с.
    Общий поток : 1593 Кбит/сек
    Дата кодирования : UTC 2011-02-17 20: 57: 58
    Дата пометки : UTC 2011-02-17 20: 58: 02
    Видео
    Идентификатор : 1
    Формат : AVC
    Формат/Информация : Advanced Video Codec
    Профиль формата : Baseline@L3
    Настройки формата : 1 Ref Frames
    Параметр CABAC формата : Нет
    Параметр RefFrames формата : 1 кадр
    Параметр GOP формата : M=1, N=120
    Идентификатор кодека : avc1
    Идентификатор кодека/Информация : Advanced Video Coding
    Продолжительность : 2 м. 34 с.
    Битрейт : 1464 Кбит/сек
    Ширина : 640 пикселей
    Высота : 360 пикселей
    Соотношение сторон : 16: 9
    Режим частоты кадров : Постоянный
    Частота кадров : 23, 976 (23976/1000) кадра/сек
    Цветовое пространство : YUV
    Субдискретизация насыщенности : 4: 2: 0
    Битовая глубина : 8 бит
    Тип развёртки : Прогрессивная
    Бит/(Пиксели*Кадры) : 0.265
    Размер потока : 26, 9 Мбайт (92%)
    Язык : English
    Дата кодирования : UTC 2011-02-17 20: 57: 58
    Дата пометки : UTC 2011-02-17 20: 58: 02
    Цветовой диапазон : Limited
    Основные цвета : BT.601 NTSC
    Характеристики трансфера : BT.709
    Коэффициенты матрицы : BT.601
    Аудио
    Идентификатор : 2
    Формат : AAC
    Формат/Информация : Advanced Audio Codec
    Профиль формата : LC
    Идентификатор кодека : mp4a-40-2
    Продолжительность : 2 м. 34 с.
    Продолжительность оригинала : 2 м. 34 с.
    Вид битрейта : Постоянный
    Битрейт : 128 Кбит/сек
    Каналы : 2 канала
    Расположение каналов : Front: L R
    Частота : 44, 1 КГц
    Частота кадров : 43, 066 кадра/сек (1024 SPF)
    Метод сжатия : С потерями
    Размер потока : 2, 31 Мбайт (8%)
    Размер потока оригинала : 2, 31 Мбайт (8%)
    Язык : English
    Дата кодирования : UTC 2011-02-17 20: 57: 58
    Дата пометки : UTC 2011-02-17 20: 58: 02
    Общее
    Полное имя : I: РазноеЗдоровьеTRXTRXTV - 3D StrongWeek 2TRXTV_Mar11_Strength_WK2_Movement.m4v
    Формат : MPEG-4
    Идентификатор кодека : M4V (M4V /M4A /mp42/isom)
    Размер файла : 20, 5 Мбайт
    Продолжительность : 1 м. 43 с.
    Общий поток : 1662 Кбит/сек
    Дата кодирования : UTC 2011-02-17 20: 38: 06
    Дата пометки : UTC 2011-02-17 20: 38: 09
    Видео
    Идентификатор : 1
    Формат : AVC
    Формат/Информация : Advanced Video Codec
    Профиль формата : Baseline@L3
    Настройки формата : 1 Ref Frames
    Параметр CABAC формата : Нет
    Параметр RefFrames формата : 1 кадр
    Параметр GOP формата : M=1, N=120
    Идентификатор кодека : avc1
    Идентификатор кодека/Информация : Advanced Video Coding
    Продолжительность : 1 м. 43 с.
    Битрейт : 1530 Кбит/сек
    Ширина : 640 пикселей
    Высота : 360 пикселей
    Соотношение сторон : 16: 9
    Режим частоты кадров : Постоянный
    Частота кадров : 23, 976 (23976/1000) кадра/сек
    Цветовое пространство : YUV
    Субдискретизация насыщенности : 4: 2: 0
    Битовая глубина : 8 бит
    Тип развёртки : Прогрессивная
    Бит/(Пиксели*Кадры) : 0.277
    Размер потока : 18, 8 Мбайт (92%)
    Язык : English
    Дата кодирования : UTC 2011-02-17 20: 38: 06
    Дата пометки : UTC 2011-02-17 20: 38: 09
    Цветовой диапазон : Limited
    Основные цвета : BT.601 NTSC
    Характеристики трансфера : BT.709
    Коэффициенты матрицы : BT.601
    Аудио
    Идентификатор : 2
    Формат : AAC
    Формат/Информация : Advanced Audio Codec
    Профиль формата : LC
    Идентификатор кодека : mp4a-40-2
    Продолжительность : 1 м. 43 с.
    Продолжительность оригинала : 1 м. 43 с.
    Вид битрейта : Постоянный
    Битрейт : 128 Кбит/сек
    Каналы : 2 канала
    Расположение каналов : Front: L R
    Частота : 44, 1 КГц
    Частота кадров : 43, 066 кадра/сек (1024 SPF)
    Метод сжатия : С потерями
    Размер потока : 1, 57 Мбайт (8%)
    Размер потока оригинала : 1, 57 Мбайт (8%)
    Язык : English
    Дата кодирования : UTC 2011-02-17 20: 38: 06
    Дата пометки : UTC 2011-02-17 20: 38: 09
    Общее
    Полное имя : I: РазноеЗдоровьеTRXTRXTV - 3D StrongWeek 2TRXTV_Mar11_Strength_WK2_Sequence.m4v
    Формат : MPEG-4
    Идентификатор кодека : M4V (M4V /M4A /mp42/isom)
    Размер файла : 39, 8 Мбайт
    Продолжительность : 3 м. 34 с.
    Общий поток : 1562 Кбит/сек
    Дата кодирования : UTC 2011-02-17 20: 54: 19
    Дата пометки : UTC 2011-02-17 20: 54: 25
    Видео
    Идентификатор : 1
    Формат : AVC
    Формат/Информация : Advanced Video Codec
    Профиль формата : Baseline@L3
    Настройки формата : 1 Ref Frames
    Параметр CABAC формата : Нет
    Параметр RefFrames формата : 1 кадр
    Параметр GOP формата : M=1, N=120
    Идентификатор кодека : avc1
    Идентификатор кодека/Информация : Advanced Video Coding
    Продолжительность : 3 м. 34 с.
    Битрейт : 1434 Кбит/сек
    Ширина : 640 пикселей
    Высота : 360 пикселей
    Соотношение сторон : 16: 9
    Режим частоты кадров : Постоянный
    Частота кадров : 23, 976 (23976/1000) кадра/сек
    Цветовое пространство : YUV
    Субдискретизация насыщенности : 4: 2: 0
    Битовая глубина : 8 бит
    Тип развёртки : Прогрессивная
    Бит/(Пиксели*Кадры) : 0.260
    Размер потока : 36, 6 Мбайт (92%)
    Язык : English
    Дата кодирования : UTC 2011-02-17 20: 54: 19
    Дата пометки : UTC 2011-02-17 20: 54: 25
    Цветовой диапазон : Limited
    Основные цвета : BT.601 NTSC
    Характеристики трансфера : BT.709
    Коэффициенты матрицы : BT.601
    Аудио
    Идентификатор : 2
    Формат : AAC
    Формат/Информация : Advanced Audio Codec
    Профиль формата : LC
    Идентификатор кодека : mp4a-40-2
    Продолжительность : 3 м. 34 с.
    Продолжительность оригинала : 3 м. 34 с.
    Вид битрейта : Постоянный
    Битрейт : 128 Кбит/сек
    Каналы : 2 канала
    Расположение каналов : Front: L R
    Частота : 44, 1 КГц
    Частота кадров : 43, 066 кадра/сек (1024 SPF)
    Метод сжатия : С потерями
    Размер потока : 3, 18 Мбайт (8%)
    Размер потока оригинала : 3, 18 Мбайт (8%)
    Язык : English
    Дата кодирования : UTC 2011-02-17 20: 54: 19
    Дата пометки : UTC 2011-02-17 20: 54: 25
    Общее
    Полное имя : I: РазноеЗдоровьеTRXTRXTV - 3D StrongWeek 2TRXTV_Mar11_Strength_WK2_Tip.m4v
    Формат : MPEG-4
    Идентификатор кодека : M4V (M4V /M4A /mp42/isom)
    Размер файла : 26, 4 Мбайт
    Продолжительность : 2 м. 17 с.
    Общий поток : 1610 Кбит/сек
    Дата кодирования : UTC 2011-02-17 20: 41: 09
    Дата пометки : UTC 2011-02-17 20: 41: 13
    Видео
    Идентификатор : 1
    Формат : AVC
    Формат/Информация : Advanced Video Codec
    Профиль формата : Baseline@L3
    Настройки формата : 1 Ref Frames
    Параметр CABAC формата : Нет
    Параметр RefFrames формата : 1 кадр
    Параметр GOP формата : M=1, N=120
    Идентификатор кодека : avc1
    Идентификатор кодека/Информация : Advanced Video Coding
    Продолжительность : 2 м. 17 с.
    Битрейт : 1482 Кбит/сек
    Ширина : 640 пикселей
    Высота : 360 пикселей
    Соотношение сторон : 16: 9
    Режим частоты кадров : Постоянный
    Частота кадров : 23, 976 (23976/1000) кадра/сек
    Цветовое пространство : YUV
    Субдискретизация насыщенности : 4: 2: 0
    Битовая глубина : 8 бит
    Тип развёртки : Прогрессивная
    Бит/(Пиксели*Кадры) : 0.268
    Размер потока : 24, 3 Мбайт (92%)
    Язык : English
    Дата кодирования : UTC 2011-02-17 20: 41: 09
    Дата пометки : UTC 2011-02-17 20: 41: 13
    Цветовой диапазон : Limited
    Основные цвета : BT.601 NTSC
    Характеристики трансфера : BT.709
    Коэффициенты матрицы : BT.601
    Аудио
    Идентификатор : 2
    Формат : AAC
    Формат/Информация : Advanced Audio Codec
    Профиль формата : LC
    Идентификатор кодека : mp4a-40-2
    Продолжительность : 2 м. 17 с.
    Продолжительность оригинала : 2 м. 17 с.
    Вид битрейта : Постоянный
    Битрейт : 128 Кбит/сек
    Каналы : 2 канала
    Расположение каналов : Front: L R
    Частота : 44, 1 КГц
    Частота кадров : 43, 066 кадра/сек (1024 SPF)
    Метод сжатия : С потерями
    Размер потока : 2, 05 Мбайт (8%)
    Размер потока оригинала : 2, 05 Мбайт (8%)
    Язык : English
    Дата кодирования : UTC 2011-02-17 20: 41: 09
    Дата пометки : UTC 2011-02-17 20: 41: 13
    Общее
    Полное имя : I: РазноеЗдоровьеTRXTRXTV - 3D StrongWeek 3TRXTV_Mar11_Strength_WK3_Movement.m4v
    Формат : MPEG-4
    Идентификатор кодека : M4V (M4V /M4A /mp42/isom)
    Размер файла : 15, 3 Мбайт
    Продолжительность : 1 м. 18 с.
    Общий поток : 1627 Кбит/сек
    Дата кодирования : UTC 2011-02-17 20: 43: 26
    Дата пометки : UTC 2011-02-17 20: 43: 28
    Видео
    Идентификатор : 1
    Формат : AVC
    Формат/Информация : Advanced Video Codec
    Профиль формата : Baseline@L3
    Настройки формата : 1 Ref Frames
    Параметр CABAC формата : Нет
    Параметр RefFrames формата : 1 кадр
    Параметр GOP формата : M=1, N=120
    Идентификатор кодека : avc1
    Идентификатор кодека/Информация : Advanced Video Coding
    Продолжительность : 1 м. 18 с.
    Битрейт : 1497 Кбит/сек
    Ширина : 640 пикселей
    Высота : 360 пикселей
    Соотношение сторон : 16: 9
    Режим частоты кадров : Постоянный
    Частота кадров : 23, 976 (23976/1000) кадра/сек
    Цветовое пространство : YUV
    Субдискретизация насыщенности : 4: 2: 0
    Битовая глубина : 8 бит
    Тип развёртки : Прогрессивная
    Бит/(Пиксели*Кадры) : 0.271
    Размер потока : 14, 1 Мбайт (92%)
    Язык : English
    Дата кодирования : UTC 2011-02-17 20: 43: 26
    Дата пометки : UTC 2011-02-17 20: 43: 28
    Цветовой диапазон : Limited
    Основные цвета : BT.601 NTSC
    Характеристики трансфера : BT.709
    Коэффициенты матрицы : BT.601
    Аудио
    Идентификатор : 2
    Формат : AAC
    Формат/Информация : Advanced Audio Codec
    Профиль формата : LC
    Идентификатор кодека : mp4a-40-2
    Продолжительность : 1 м. 18 с.
    Продолжительность оригинала : 1 м. 18 с.
    Вид битрейта : Постоянный
    Битрейт : 128 Кбит/сек
    Каналы : 2 канала
    Расположение каналов : Front: L R
    Частота : 44, 1 КГц
    Частота кадров : 43, 066 кадра/сек (1024 SPF)
    Метод сжатия : С потерями
    Размер потока : 1, 18 Мбайт (8%)
    Размер потока оригинала : 1, 18 Мбайт (8%)
    Язык : English
    Дата кодирования : UTC 2011-02-17 20: 43: 26
    Дата пометки : UTC 2011-02-17 20: 43: 28
    Общее
    Полное имя : I: РазноеЗдоровьеTRXTRXTV - 3D StrongWeek 3TRXTV_Mar11_Strength_WK3_Sequence.m4v
    Формат : MPEG-4
    Идентификатор кодека : M4V (M4V /M4A /mp42/isom)
    Размер файла : 36, 7 Мбайт
    Продолжительность : 3 м. 6 с.
    Общий поток : 1648 Кбит/сек
    Дата кодирования : UTC 2011-02-17 21: 12: 50
    Дата пометки : UTC 2011-02-17 21: 12: 55
    Видео
    Идентификатор : 1
    Формат : AVC
    Формат/Информация : Advanced Video Codec
    Профиль формата : Baseline@L3
    Настройки формата : 1 Ref Frames
    Параметр CABAC формата : Нет
    Параметр RefFrames формата : 1 кадр
    Параметр GOP формата : M=1, N=120
    Идентификатор кодека : avc1
    Идентификатор кодека/Информация : Advanced Video Coding
    Продолжительность : 3 м. 6 с.
    Битрейт : 1518 Кбит/сек
    Ширина : 640 пикселей
    Высота : 360 пикселей
    Соотношение сторон : 16: 9
    Режим частоты кадров : Постоянный
    Частота кадров : 23, 976 (23976/1000) кадра/сек
    Цветовое пространство : YUV
    Субдискретизация насыщенности : 4: 2: 0
    Битовая глубина : 8 бит
    Тип развёртки : Прогрессивная
    Бит/(Пиксели*Кадры) : 0.275
    Размер потока : 33, 8 Мбайт (92%)
    Язык : English
    Дата кодирования : UTC 2011-02-17 21: 12: 50
    Дата пометки : UTC 2011-02-17 21: 12: 55
    Цветовой диапазон : Limited
    Основные цвета : BT.601 NTSC
    Характеристики трансфера : BT.709
    Коэффициенты матрицы : BT.601
    Аудио
    Идентификатор : 2
    Формат : AAC
    Формат/Информация : Advanced Audio Codec
    Профиль формата : LC
    Идентификатор кодека : mp4a-40-2
    Продолжительность : 3 м. 6 с.
    Продолжительность оригинала : 3 м. 6 с.
    Вид битрейта : Постоянный
    Битрейт : 128 Кбит/сек
    Каналы : 2 канала
    Расположение каналов : Front: L R
    Частота : 44, 1 КГц
    Частота кадров : 43, 066 кадра/сек (1024 SPF)
    Метод сжатия : С потерями
    Размер потока : 2, 83 Мбайт (8%)
    Размер потока оригинала : 2, 83 Мбайт (8%)
    Язык : English
    Дата кодирования : UTC 2011-02-17 21: 12: 50
    Дата пометки : UTC 2011-02-17 21: 12: 55
    Общее
    Полное имя : I: РазноеЗдоровьеTRXTRXTV - 3D StrongWeek 3TRXTV_Mar11_Strength_WK3_Tip.m4v
    Формат : MPEG-4
    Идентификатор кодека : M4V (M4V /M4A /mp42/isom)
    Размер файла : 25, 5 Мбайт
    Продолжительность : 2 м. 7 с.
    Общий поток : 1675 Кбит/сек
    Дата кодирования : UTC 2011-02-17 20: 26: 06
    Дата пометки : UTC 2011-02-17 20: 26: 10
    Видео
    Идентификатор : 1
    Формат : AVC
    Формат/Информация : Advanced Video Codec
    Профиль формата : Baseline@L3
    Настройки формата : 1 Ref Frames
    Параметр CABAC формата : Нет
    Параметр RefFrames формата : 1 кадр
    Параметр GOP формата : M=1, N=120
    Идентификатор кодека : avc1
    Идентификатор кодека/Информация : Advanced Video Coding
    Продолжительность : 2 м. 7 с.
    Битрейт : 1551 Кбит/сек
    Ширина : 640 пикселей
    Высота : 360 пикселей
    Соотношение сторон : 16: 9
    Режим частоты кадров : Постоянный
    Частота кадров : 23, 976 (23976/1000) кадра/сек
    Цветовое пространство : YUV
    Субдискретизация насыщенности : 4: 2: 0
    Битовая глубина : 8 бит
    Тип развёртки : Прогрессивная
    Бит/(Пиксели*Кадры) : 0.281
    Размер потока : 23, 6 Мбайт (93%)
    Язык : English
    Дата кодирования : UTC 2011-02-17 20: 26: 06
    Дата пометки : UTC 2011-02-17 20: 26: 10
    Цветовой диапазон : Limited
    Основные цвета : BT.601 NTSC
    Характеристики трансфера : BT.709
    Коэффициенты матрицы : BT.601
    Аудио
    Идентификатор : 2
    Формат : AAC
    Формат/Информация : Advanced Audio Codec
    Профиль формата : LC
    Идентификатор кодека : mp4a-40-2
    Продолжительность : 2 м. 7 с.
    Продолжительность оригинала : 2 м. 7 с.
    Вид битрейта : Постоянный
    Битрейт : 121 Кбит/сек
    Номинальный битрейт : 128 Кбит/сек
    Каналы : 2 канала
    Расположение каналов : Front: L R
    Частота : 44, 1 КГц
    Частота кадров : 43, 066 кадра/сек (1024 SPF)
    Метод сжатия : С потерями
    Размер потока : 1, 84 Мбайт (7%)
    Размер потока оригинала : 1, 84 Мбайт (7%)
    Язык : English
    Дата кодирования : UTC 2011-02-17 20: 26: 06
    Дата пометки : UTC 2011-02-17 20: 26: 10
    Общее
    Полное имя : I: РазноеЗдоровьеTRXTRXTV - 3D StrongWeek 4TRXTV_Mar11_Strength_WK4_Movement.m4v
    Формат : MPEG-4
    Идентификатор кодека : M4V (M4V /M4A /mp42/isom)
    Размер файла : 14, 2 Мбайт
    Продолжительность : 1 м. 14 с.
    Общий поток : 1607 Кбит/сек
    Дата кодирования : UTC 2011-02-17 21: 03: 15
    Дата пометки : UTC 2011-02-17 21: 03: 17
    Видео
    Идентификатор : 1
    Формат : AVC
    Формат/Информация : Advanced Video Codec
    Профиль формата : Baseline@L3
    Настройки формата : 1 Ref Frames
    Параметр CABAC формата : Нет
    Параметр RefFrames формата : 1 кадр
    Параметр GOP формата : M=1, N=120
    Идентификатор кодека : avc1
    Идентификатор кодека/Информация : Advanced Video Coding
    Продолжительность : 1 м. 14 с.
    Битрейт : 1479 Кбит/сек
    Ширина : 640 пикселей
    Высота : 360 пикселей
    Соотношение сторон : 16: 9
    Режим частоты кадров : Постоянный
    Частота кадров : 23, 976 (23976/1000) кадра/сек
    Цветовое пространство : YUV
    Субдискретизация насыщенности : 4: 2: 0
    Битовая глубина : 8 бит
    Тип развёртки : Прогрессивная
    Бит/(Пиксели*Кадры) : 0.268
    Размер потока : 13, 0 Мбайт (92%)
    Язык : English
    Дата кодирования : UTC 2011-02-17 21: 03: 15
    Дата пометки : UTC 2011-02-17 21: 03: 17
    Цветовой диапазон : Limited
    Основные цвета : BT.601 NTSC
    Характеристики трансфера : BT.709
    Коэффициенты матрицы : BT.601
    Аудио
    Идентификатор : 2
    Формат : AAC
    Формат/Информация : Advanced Audio Codec
    Профиль формата : LC
    Идентификатор кодека : mp4a-40-2
    Продолжительность : 1 м. 14 с.
    Продолжительность оригинала : 1 м. 14 с.
    Вид битрейта : Постоянный
    Битрейт : 128 Кбит/сек
    Каналы : 2 канала
    Расположение каналов : Front: L R
    Частота : 44, 1 КГц
    Частота кадров : 43, 066 кадра/сек (1024 SPF)
    Метод сжатия : С потерями
    Размер потока : 1, 10 Мбайт (8%)
    Размер потока оригинала : 1, 10 Мбайт (8%)
    Язык : English
    Дата кодирования : UTC 2011-02-17 21: 03: 15
    Дата пометки : UTC 2011-02-17 21: 03: 17
    Общее
    Полное имя : I: РазноеЗдоровьеTRXTRXTV - 3D StrongWeek 4TRXTV_Mar11_Strength_WK4_Sequence.m4v
    Формат : MPEG-4
    Идентификатор кодека : M4V (M4V /M4A /mp42/isom)
    Размер файла : 27, 2 Мбайт
    Продолжительность : 2 м. 23 с.
    Общий поток : 1588 Кбит/сек
    Дата кодирования : UTC 2011-02-17 21: 01: 09
    Дата пометки : UTC 2011-02-17 21: 01: 12
    Видео
    Идентификатор : 1
    Формат : AVC
    Формат/Информация : Advanced Video Codec
    Профиль формата : Baseline@L3
    Настройки формата : 1 Ref Frames
    Параметр CABAC формата : Нет
    Параметр RefFrames формата : 1 кадр
    Параметр GOP формата : M=1, N=120
    Идентификатор кодека : avc1
    Идентификатор кодека/Информация : Advanced Video Coding
    Продолжительность : 2 м. 23 с.
    Битрейт : 1457 Кбит/сек
    Ширина : 640 пикселей
    Высота : 360 пикселей
    Соотношение сторон : 16: 9
    Режим частоты кадров : Постоянный
    Частота кадров : 23, 976 (23976/1000) кадра/сек
    Цветовое пространство : YUV
    Субдискретизация насыщенности : 4: 2: 0
    Битовая глубина : 8 бит
    Тип развёртки : Прогрессивная
    Бит/(Пиксели*Кадры) : 0.264
    Размер потока : 25, 0 Мбайт (92%)
    Язык : English
    Дата кодирования : UTC 2011-02-17 21: 01: 08
    Дата пометки : UTC 2011-02-17 21: 01: 12
    Цветовой диапазон : Limited
    Основные цвета : BT.601 NTSC
    Характеристики трансфера : BT.709
    Коэффициенты матрицы : BT.601
    Аудио
    Идентификатор : 2
    Формат : AAC
    Формат/Информация : Advanced Audio Codec
    Профиль формата : LC
    Идентификатор кодека : mp4a-40-2
    Продолжительность : 2 м. 23 с.
    Продолжительность оригинала : 2 м. 23 с.
    Вид битрейта : Постоянный
    Битрейт : 128 Кбит/сек
    Каналы : 2 канала
    Расположение каналов : Front: L R
    Частота : 44, 1 КГц
    Частота кадров : 43, 066 кадра/сек (1024 SPF)
    Метод сжатия : С потерями
    Размер потока : 2, 18 Мбайт (8%)
    Размер потока оригинала : 2, 18 Мбайт (8%)
    Язык : English
    Дата кодирования : UTC 2011-02-17 21: 01: 08
    Дата пометки : UTC 2011-02-17 21: 01: 12
    Общее
    Полное имя : I: РазноеЗдоровьеTRXTRXTV - 3D StrongWeek 4TRXTV_Mar11_Strength_WK4_Tip.m4v
    Формат : MPEG-4
    Идентификатор кодека : M4V (M4V /M4A /mp42/isom)
    Размер файла : 24, 6 Мбайт
    Продолжительность : 2 м. 3 с.
    Общий поток : 1668 Кбит/сек
    Дата кодирования : UTC 2011-02-17 20: 35: 50
    Дата пометки : UTC 2011-02-17 20: 35: 53
    Видео
    Идентификатор : 1
    Формат : AVC
    Формат/Информация : Advanced Video Codec
    Профиль формата : Baseline@L3
    Настройки формата : 1 Ref Frames
    Параметр CABAC формата : Нет
    Параметр RefFrames формата : 1 кадр
    Параметр GOP формата : M=1, N=120
    Идентификатор кодека : avc1
    Идентификатор кодека/Информация : Advanced Video Coding
    Продолжительность : 2 м. 3 с.
    Битрейт : 1536 Кбит/сек
    Ширина : 640 пикселей
    Высота : 360 пикселей
    Соотношение сторон : 16: 9
    Режим частоты кадров : Постоянный
    Частота кадров : 23, 976 (23976/1000) кадра/сек
    Цветовое пространство : YUV
    Субдискретизация насыщенности : 4: 2: 0
    Битовая глубина : 8 бит
    Тип развёртки : Прогрессивная
    Бит/(Пиксели*Кадры) : 0.278
    Размер потока : 22, 6 Мбайт (92%)
    Язык : English
    Дата кодирования : UTC 2011-02-17 20: 35: 50
    Дата пометки : UTC 2011-02-17 20: 35: 53
    Цветовой диапазон : Limited
    Основные цвета : BT.601 NTSC
    Характеристики трансфера : BT.709
    Коэффициенты матрицы : BT.601
    Аудио
    Идентификатор : 2
    Формат : AAC
    Формат/Информация : Advanced Audio Codec
    Профиль формата : LC
    Идентификатор кодека : mp4a-40-2
    Продолжительность : 2 м. 3 с.
    Продолжительность оригинала : 2 м. 3 с.
    Вид битрейта : Постоянный
    Битрейт : 128 Кбит/сек
    Каналы : 2 канала
    Расположение каналов : Front: L R
    Частота : 44, 1 КГц
    Частота кадров : 43, 066 кадра/сек (1024 SPF)
    Метод сжатия : С потерями
    Размер потока : 1, 90 Мбайт (8%)
    Размер потока оригинала : 1, 90 Мбайт (8%)
    Язык : English
    Дата кодирования : UTC 2011-02-17 20: 35: 50
    Дата пометки : UTC 2011-02-17 20: 35: 53
    Скриншоты:


    Время раздачи: Круглосуточно (до появления первых 3-5 скачавших)


    TRX TV | 3D Strong (2011) WEB-DLRip [H.264][EN]
    Рейтинг →
     (голосов: 1, оценка 3/5, голосовать можно 1 раз )

    Другие торренты по теме:

  • Кавалерия / 12 Strong (2018) WEB-DLRip [MVO]
  • Кавалерия / 12 Strong (2018) WEB-DLRip [H.264 / 1080p] [MVO]


    • Комментарии (0):

      Информация

      Информация

        Посетители, находящиеся в группе Гости, не могут оставлять комментарии в данной новости.

        ↓ Меню




        ↓ Опрос

        Вы добавили сайт в закладки?
        Да
        Нет


        Top 10 за месяц (Книги)