.
Авторизация | Регистрация
Хочешь лучшие торренты? Добавь свой email!
Добавить

Торрент скачать бесплатно

» » TRX TV | Absolute Power (2011) WEB-DLRip [H.264][EN] торрент скачать бесплатно


    TRX TV | Absolute Power (2011) WEB-DLRip [H.264][EN] торрент скачать бесплатно

    Опубликовал: Админ | Дата: 2-04-2018, 05:00 | .torrent скачали: 1

    TRX TV | Absolute Power (2011) WEB-DLRip [H.264][EN]Автор (режиссер): TRX TV
    Производство: TRX TV
    Жанр: Функциональный тренинг

    Описание

    Выпуск TRX TV про развитие максимальной силы на петлях
    Продолжительность: 00: 55: 54
    Качество видео: WEB-DLRip
    Перевод: Отсутствует
    Язык озвучки: Английский
    Видео: AVC/H.264, 640х360, ~1482 Kbps
    Аудио: AAC, 2 ch, 128 Kbps

    Общее
    Полное имя : I: РазноеЗдоровьеTRXTRXTV - Absolute PowerTRXTV_APR11_AbsolutePower_PDF.pdf
    Формат : PDF
    Версия формата : 1.5
    Размер файла : 827 Кбайт
    Текст
    Формат : PDF
    Общее
    Полное имя : I: РазноеЗдоровьеTRXTRXTV - Absolute PowerTRXTV_Apr11_Power_Download.m4v
    Формат : MPEG-4
    Идентификатор кодека : M4V (M4V /M4A /mp42/isom)
    Размер файла : 298 Мбайт
    Продолжительность : 25 м. 49 с.
    Режим общего битрейта : Переменный
    Общий поток : 1611 Кбит/сек
    Дата кодирования : UTC 2011-03-22 03: 35: 54
    Дата пометки : UTC 2011-03-22 03: 36: 12
    Видео
    Идентификатор : 2
    Формат : AVC
    Формат/Информация : Advanced Video Codec
    Профиль формата : Baseline@L3
    Настройки формата : 1 Ref Frames
    Параметр CABAC формата : Нет
    Параметр RefFrames формата : 1 кадр
    Идентификатор кодека : avc1
    Идентификатор кодека/Информация : Advanced Video Coding
    Продолжительность : 25 м. 49 с.
    Битрейт : 1482 Кбит/сек
    Ширина : 640 пикселей
    Высота : 360 пикселей
    Соотношение сторон : 16: 9
    Режим частоты кадров : Постоянный
    Частота кадров : 23, 976 (23976/1000) кадра/сек
    Цветовое пространство : YUV
    Субдискретизация насыщенности : 4: 2: 0
    Битовая глубина : 8 бит
    Тип развёртки : Прогрессивная
    Бит/(Пиксели*Кадры) : 0.268
    Размер потока : 274 Мбайт (92%)
    Язык : English
    Дата кодирования : UTC 2011-03-22 03: 35: 52
    Дата пометки : UTC 2011-03-22 03: 36: 12
    Цветовой диапазон : Limited
    Основные цвета : BT.601 NTSC
    Характеристики трансфера : BT.709
    Коэффициенты матрицы : BT.601
    Аудио
    Идентификатор : 3
    Формат : AAC
    Формат/Информация : Advanced Audio Codec
    Профиль формата : LC
    Идентификатор кодека : mp4a-40-2
    Продолжительность : 25 м. 49 с.
    Продолжительность оригинала : 25 м. 49 с.
    Вид битрейта : Постоянный
    Битрейт : 128 Кбит/сек
    Каналы : 2 канала
    Расположение каналов : Front: L R
    Частота : 44, 1 КГц
    Частота кадров : 43, 066 кадра/сек (1024 SPF)
    Метод сжатия : С потерями
    Размер потока : 23, 2 Мбайт (8%)
    Размер потока оригинала : 23, 2 Мбайт (8%)
    Язык : English
    Дата кодирования : UTC 2011-03-22 03: 35: 53
    Дата пометки : UTC 2011-03-22 03: 36: 12
    Menus : 1
    Текст
    Идентификатор : 1
    Формат : Timed Text
    Идентификатор кодека : tx3g
    Продолжительность : 25 м. 49 с.
    Вид битрейта : Переменный
    Битрейт : 2 бит/сек
    Размер потока : 333 байт (0%)
    Язык : English
    Default : Нет
    Forced : Нет
    Дата кодирования : UTC 2011-03-22 03: 35: 52
    Дата пометки : UTC 2011-03-22 03: 36: 12
    Menu For : 3
    Общее
    Полное имя : I: РазноеЗдоровьеTRXTRXTV - Absolute PowerWeek 1TRXTV_Apr11_Power_WK1_Movement.m4v
    Формат : MPEG-4
    Идентификатор кодека : M4V (M4V /M4A /mp42/isom)
    Размер файла : 26, 3 Мбайт
    Продолжительность : 2 м. 9 с.
    Общий поток : 1705 Кбит/сек
    Дата кодирования : UTC 2011-03-23 18: 25: 55
    Дата пометки : UTC 2011-03-23 18: 25: 57
    Видео
    Идентификатор : 1
    Формат : AVC
    Формат/Информация : Advanced Video Codec
    Профиль формата : Baseline@L3
    Настройки формата : 1 Ref Frames
    Параметр CABAC формата : Нет
    Параметр RefFrames формата : 1 кадр
    Идентификатор кодека : avc1
    Идентификатор кодека/Информация : Advanced Video Coding
    Продолжительность : 2 м. 9 с.
    Битрейт : 1574 Кбит/сек
    Ширина : 640 пикселей
    Высота : 360 пикселей
    Соотношение сторон : 16: 9
    Режим частоты кадров : Постоянный
    Частота кадров : 29, 970 (29970/1000) кадров/сек
    Цветовое пространство : YUV
    Субдискретизация насыщенности : 4: 2: 0
    Битовая глубина : 8 бит
    Тип развёртки : Прогрессивная
    Бит/(Пиксели*Кадры) : 0.228
    Размер потока : 24, 3 Мбайт (92%)
    Язык : English
    Дата кодирования : UTC 2011-03-23 18: 25: 54
    Дата пометки : UTC 2011-03-23 18: 25: 57
    Цветовой диапазон : Limited
    Основные цвета : BT.601 NTSC
    Характеристики трансфера : BT.709
    Коэффициенты матрицы : BT.601
    Аудио
    Идентификатор : 2
    Формат : AAC
    Формат/Информация : Advanced Audio Codec
    Профиль формата : LC
    Идентификатор кодека : mp4a-40-2
    Продолжительность : 2 м. 9 с.
    Продолжительность оригинала : 2 м. 9 с.
    Вид битрейта : Постоянный
    Битрейт : 128 Кбит/сек
    Каналы : 2 канала
    Расположение каналов : Front: L R
    Частота : 44, 1 КГц
    Частота кадров : 43, 066 кадра/сек (1024 SPF)
    Метод сжатия : С потерями
    Размер потока : 1, 96 Мбайт (7%)
    Размер потока оригинала : 1, 96 Мбайт (7%)
    Язык : English
    Дата кодирования : UTC 2011-03-23 18: 25: 55
    Дата пометки : UTC 2011-03-23 18: 25: 57
    Общее
    Полное имя : I: РазноеЗдоровьеTRXTRXTV - Absolute PowerWeek 1TRXTV_Apr11_Power_WK1_Sequence.m4v
    Формат : MPEG-4
    Идентификатор кодека : M4V (M4V /M4A /mp42/isom)
    Размер файла : 37, 6 Мбайт
    Продолжительность : 3 м. 0 с.
    Общий поток : 1751 Кбит/сек
    Дата кодирования : UTC 2011-03-23 20: 19: 28
    Дата пометки : UTC 2011-03-23 20: 19: 32
    Видео
    Идентификатор : 1
    Формат : AVC
    Формат/Информация : Advanced Video Codec
    Профиль формата : Baseline@L3
    Настройки формата : 1 Ref Frames
    Параметр CABAC формата : Нет
    Параметр RefFrames формата : 1 кадр
    Идентификатор кодека : avc1
    Идентификатор кодека/Информация : Advanced Video Coding
    Продолжительность : 3 м. 0 с.
    Битрейт : 1622 Кбит/сек
    Ширина : 640 пикселей
    Высота : 360 пикселей
    Соотношение сторон : 16: 9
    Режим частоты кадров : Постоянный
    Частота кадров : 29, 970 (29970/1000) кадров/сек
    Цветовое пространство : YUV
    Субдискретизация насыщенности : 4: 2: 0
    Битовая глубина : 8 бит
    Тип развёртки : Прогрессивная
    Бит/(Пиксели*Кадры) : 0.235
    Размер потока : 34, 8 Мбайт (93%)
    Язык : English
    Дата кодирования : UTC 2011-03-23 20: 19: 28
    Дата пометки : UTC 2011-03-23 20: 19: 32
    Цветовой диапазон : Limited
    Основные цвета : BT.601 NTSC
    Характеристики трансфера : BT.709
    Коэффициенты матрицы : BT.601
    Аудио
    Идентификатор : 2
    Формат : AAC
    Формат/Информация : Advanced Audio Codec
    Профиль формата : LC
    Идентификатор кодека : mp4a-40-2
    Продолжительность : 3 м. 0 с.
    Продолжительность оригинала : 3 м. 0 с.
    Вид битрейта : Постоянный
    Битрейт : 128 Кбит/сек
    Каналы : 2 канала
    Расположение каналов : Front: L R
    Частота : 44, 1 КГц
    Частота кадров : 43, 066 кадра/сек (1024 SPF)
    Метод сжатия : С потерями
    Размер потока : 2, 70 Мбайт (7%)
    Размер потока оригинала : 2, 70 Мбайт (7%)
    Язык : English
    Дата кодирования : UTC 2011-03-23 20: 19: 28
    Дата пометки : UTC 2011-03-23 20: 19: 32
    Общее
    Полное имя : I: РазноеЗдоровьеTRXTRXTV - Absolute PowerWeek 1TRXTV_Apr11_Power_WK1_Tip.m4v
    Формат : MPEG-4
    Идентификатор кодека : M4V (M4V /M4A /mp42/isom)
    Размер файла : 19, 1 Мбайт
    Продолжительность : 1 м. 36 с.
    Общий поток : 1654 Кбит/сек
    Дата кодирования : UTC 2011-03-23 19: 20: 06
    Дата пометки : UTC 2011-03-23 19: 20: 08
    Видео
    Идентификатор : 1
    Формат : AVC
    Формат/Информация : Advanced Video Codec
    Профиль формата : Baseline@L3
    Настройки формата : 1 Ref Frames
    Параметр CABAC формата : Нет
    Параметр RefFrames формата : 1 кадр
    Идентификатор кодека : avc1
    Идентификатор кодека/Информация : Advanced Video Coding
    Продолжительность : 1 м. 36 с.
    Битрейт : 1525 Кбит/сек
    Ширина : 640 пикселей
    Высота : 360 пикселей
    Соотношение сторон : 16: 9
    Режим частоты кадров : Постоянный
    Частота кадров : 29, 970 (29970/1000) кадров/сек
    Цветовое пространство : YUV
    Субдискретизация насыщенности : 4: 2: 0
    Битовая глубина : 8 бит
    Тип развёртки : Прогрессивная
    Бит/(Пиксели*Кадры) : 0.221
    Размер потока : 17, 6 Мбайт (92%)
    Язык : English
    Дата кодирования : UTC 2011-03-23 19: 20: 06
    Дата пометки : UTC 2011-03-23 19: 20: 08
    Цветовой диапазон : Limited
    Основные цвета : BT.601 NTSC
    Характеристики трансфера : BT.709
    Коэффициенты матрицы : BT.601
    Аудио
    Идентификатор : 2
    Формат : AAC
    Формат/Информация : Advanced Audio Codec
    Профиль формата : LC
    Идентификатор кодека : mp4a-40-2
    Продолжительность : 1 м. 36 с.
    Продолжительность оригинала : 1 м. 36 с.
    Вид битрейта : Постоянный
    Битрейт : 128 Кбит/сек
    Каналы : 2 канала
    Расположение каналов : Front: L R
    Частота : 44, 1 КГц
    Частота кадров : 43, 066 кадра/сек (1024 SPF)
    Метод сжатия : С потерями
    Размер потока : 1, 45 Мбайт (8%)
    Размер потока оригинала : 1, 45 Мбайт (8%)
    Язык : English
    Дата кодирования : UTC 2011-03-23 19: 20: 06
    Дата пометки : UTC 2011-03-23 19: 20: 08
    Общее
    Полное имя : I: РазноеЗдоровьеTRXTRXTV - Absolute PowerWeek 2TRXTV_Apr11_Power_WK2_Movement.m4v
    Формат : MPEG-4
    Идентификатор кодека : M4V (M4V /M4A /mp42/isom)
    Размер файла : 31, 0 Мбайт
    Продолжительность : 2 м. 32 с.
    Общий поток : 1701 Кбит/сек
    Дата кодирования : UTC 2011-03-23 18: 48: 38
    Дата пометки : UTC 2011-03-23 18: 48: 41
    Видео
    Идентификатор : 1
    Формат : AVC
    Формат/Информация : Advanced Video Codec
    Профиль формата : Baseline@L3
    Настройки формата : 1 Ref Frames
    Параметр CABAC формата : Нет
    Параметр RefFrames формата : 1 кадр
    Идентификатор кодека : avc1
    Идентификатор кодека/Информация : Advanced Video Coding
    Продолжительность : 2 м. 32 с.
    Битрейт : 1573 Кбит/сек
    Ширина : 640 пикселей
    Высота : 360 пикселей
    Соотношение сторон : 16: 9
    Режим частоты кадров : Постоянный
    Частота кадров : 29, 970 (29970/1000) кадров/сек
    Цветовое пространство : YUV
    Субдискретизация насыщенности : 4: 2: 0
    Битовая глубина : 8 бит
    Тип развёртки : Прогрессивная
    Бит/(Пиксели*Кадры) : 0.228
    Размер потока : 28, 7 Мбайт (92%)
    Язык : English
    Дата кодирования : UTC 2011-03-23 18: 48: 38
    Дата пометки : UTC 2011-03-23 18: 48: 41
    Цветовой диапазон : Limited
    Основные цвета : BT.601 NTSC
    Характеристики трансфера : BT.709
    Коэффициенты матрицы : BT.601
    Аудио
    Идентификатор : 2
    Формат : AAC
    Формат/Информация : Advanced Audio Codec
    Профиль формата : LC
    Идентификатор кодека : mp4a-40-2
    Продолжительность : 2 м. 32 с.
    Продолжительность оригинала : 2 м. 32 с.
    Вид битрейта : Постоянный
    Битрейт : 128 Кбит/сек
    Каналы : 2 канала
    Расположение каналов : Front: L R
    Частота : 44, 1 КГц
    Частота кадров : 43, 066 кадра/сек (1024 SPF)
    Метод сжатия : С потерями
    Размер потока : 2, 27 Мбайт (7%)
    Размер потока оригинала : 2, 27 Мбайт (7%)
    Язык : English
    Дата кодирования : UTC 2011-03-23 18: 48: 38
    Дата пометки : UTC 2011-03-23 18: 48: 41
    Общее
    Полное имя : I: РазноеЗдоровьеTRXTRXTV - Absolute PowerWeek 2TRXTV_Apr11_Power_WK2_Sequence.m4v
    Формат : MPEG-4
    Идентификатор кодека : M4V (M4V /M4A /mp42/isom)
    Размер файла : 33, 6 Мбайт
    Продолжительность : 2 м. 51 с.
    Общий поток : 1643 Кбит/сек
    Дата кодирования : UTC 2011-03-23 20: 46: 45
    Дата пометки : UTC 2011-03-23 20: 46: 49
    Видео
    Идентификатор : 1
    Формат : AVC
    Формат/Информация : Advanced Video Codec
    Профиль формата : Baseline@L3
    Настройки формата : 1 Ref Frames
    Параметр CABAC формата : Нет
    Параметр RefFrames формата : 1 кадр
    Идентификатор кодека : avc1
    Идентификатор кодека/Информация : Advanced Video Coding
    Продолжительность : 2 м. 51 с.
    Битрейт : 1513 Кбит/сек
    Ширина : 640 пикселей
    Высота : 360 пикселей
    Соотношение сторон : 16: 9
    Режим частоты кадров : Постоянный
    Частота кадров : 29, 970 (29970/1000) кадров/сек
    Цветовое пространство : YUV
    Субдискретизация насыщенности : 4: 2: 0
    Битовая глубина : 8 бит
    Тип развёртки : Прогрессивная
    Бит/(Пиксели*Кадры) : 0.219
    Размер потока : 31, 0 Мбайт (92%)
    Язык : English
    Дата кодирования : UTC 2011-03-23 20: 46: 45
    Дата пометки : UTC 2011-03-23 20: 46: 49
    Цветовой диапазон : Limited
    Основные цвета : BT.601 NTSC
    Характеристики трансфера : BT.709
    Коэффициенты матрицы : BT.601
    Аудио
    Идентификатор : 2
    Формат : AAC
    Формат/Информация : Advanced Audio Codec
    Профиль формата : LC
    Идентификатор кодека : mp4a-40-2
    Продолжительность : 2 м. 51 с.
    Продолжительность оригинала : 2 м. 51 с.
    Вид битрейта : Постоянный
    Битрейт : 128 Кбит/сек
    Каналы : 2 канала
    Расположение каналов : Front: L R
    Частота : 44, 1 КГц
    Частота кадров : 43, 066 кадра/сек (1024 SPF)
    Метод сжатия : С потерями
    Размер потока : 2, 57 Мбайт (8%)
    Размер потока оригинала : 2, 57 Мбайт (8%)
    Язык : English
    Дата кодирования : UTC 2011-03-23 20: 46: 45
    Дата пометки : UTC 2011-03-23 20: 46: 49
    Общее
    Полное имя : I: РазноеЗдоровьеTRXTRXTV - Absolute PowerWeek 2TRXTV_Apr11_Power_WK2_Tip.m4v
    Формат : MPEG-4
    Идентификатор кодека : M4V (M4V /M4A /mp42/isom)
    Размер файла : 35, 1 Мбайт
    Продолжительность : 2 м. 50 с.
    Общий поток : 1723 Кбит/сек
    Дата кодирования : UTC 2011-03-23 19: 44: 22
    Дата пометки : UTC 2011-03-23 19: 44: 26
    Видео
    Идентификатор : 1
    Формат : AVC
    Формат/Информация : Advanced Video Codec
    Профиль формата : Baseline@L3
    Настройки формата : 1 Ref Frames
    Параметр CABAC формата : Нет
    Параметр RefFrames формата : 1 кадр
    Идентификатор кодека : avc1
    Идентификатор кодека/Информация : Advanced Video Coding
    Продолжительность : 2 м. 50 с.
    Битрейт : 1597 Кбит/сек
    Ширина : 640 пикселей
    Высота : 360 пикселей
    Соотношение сторон : 16: 9
    Режим частоты кадров : Постоянный
    Частота кадров : 29, 970 (29970/1000) кадров/сек
    Цветовое пространство : YUV
    Субдискретизация насыщенности : 4: 2: 0
    Битовая глубина : 8 бит
    Тип развёртки : Прогрессивная
    Бит/(Пиксели*Кадры) : 0.231
    Размер потока : 32, 5 Мбайт (93%)
    Язык : English
    Дата кодирования : UTC 2011-03-23 19: 44: 22
    Дата пометки : UTC 2011-03-23 19: 44: 26
    Цветовой диапазон : Limited
    Основные цвета : BT.601 NTSC
    Характеристики трансфера : BT.709
    Коэффициенты матрицы : BT.601
    Аудио
    Идентификатор : 2
    Формат : AAC
    Формат/Информация : Advanced Audio Codec
    Профиль формата : LC
    Идентификатор кодека : mp4a-40-2
    Продолжительность : 2 м. 50 с.
    Продолжительность оригинала : 2 м. 50 с.
    Вид битрейта : Постоянный
    Битрейт : 128 Кбит/сек
    Каналы : 2 канала
    Расположение каналов : Front: L R
    Частота : 44, 1 КГц
    Частота кадров : 43, 066 кадра/сек (1024 SPF)
    Метод сжатия : С потерями
    Размер потока : 2, 50 Мбайт (7%)
    Размер потока оригинала : 2, 50 Мбайт (7%)
    Язык : English
    Дата кодирования : UTC 2011-03-23 19: 44: 22
    Дата пометки : UTC 2011-03-23 19: 44: 26
    Общее
    Полное имя : I: РазноеЗдоровьеTRXTRXTV - Absolute PowerWeek 3TRXTV_Apr11_Power_WK3_Movement.m4v
    Формат : MPEG-4
    Идентификатор кодека : M4V (M4V /M4A /mp42/isom)
    Размер файла : 25, 1 Мбайт
    Продолжительность : 2 м. 14 с.
    Общий поток : 1569 Кбит/сек
    Дата кодирования : UTC 2011-03-23 19: 04: 48
    Дата пометки : UTC 2011-03-23 19: 04: 50
    Видео
    Идентификатор : 1
    Формат : AVC
    Формат/Информация : Advanced Video Codec
    Профиль формата : Baseline@L3
    Настройки формата : 1 Ref Frames
    Параметр CABAC формата : Нет
    Параметр RefFrames формата : 1 кадр
    Идентификатор кодека : avc1
    Идентификатор кодека/Информация : Advanced Video Coding
    Продолжительность : 2 м. 14 с.
    Битрейт : 1440 Кбит/сек
    Ширина : 640 пикселей
    Высота : 360 пикселей
    Соотношение сторон : 16: 9
    Режим частоты кадров : Постоянный
    Частота кадров : 29, 970 (29970/1000) кадров/сек
    Цветовое пространство : YUV
    Субдискретизация насыщенности : 4: 2: 0
    Битовая глубина : 8 бит
    Тип развёртки : Прогрессивная
    Бит/(Пиксели*Кадры) : 0.209
    Размер потока : 23, 0 Мбайт (92%)
    Язык : English
    Дата кодирования : UTC 2011-03-23 19: 04: 48
    Дата пометки : UTC 2011-03-23 19: 04: 50
    Цветовой диапазон : Limited
    Основные цвета : BT.601 NTSC
    Характеристики трансфера : BT.709
    Коэффициенты матрицы : BT.601
    Аудио
    Идентификатор : 2
    Формат : AAC
    Формат/Информация : Advanced Audio Codec
    Профиль формата : LC
    Идентификатор кодека : mp4a-40-2
    Продолжительность : 2 м. 14 с.
    Продолжительность оригинала : 2 м. 14 с.
    Вид битрейта : Постоянный
    Битрейт : 128 Кбит/сек
    Каналы : 2 канала
    Расположение каналов : Front: L R
    Частота : 44, 1 КГц
    Частота кадров : 43, 066 кадра/сек (1024 SPF)
    Метод сжатия : С потерями
    Размер потока : 2, 00 Мбайт (8%)
    Размер потока оригинала : 2, 00 Мбайт (8%)
    Язык : English
    Дата кодирования : UTC 2011-03-23 19: 04: 48
    Дата пометки : UTC 2011-03-23 19: 04: 50
    Общее
    Полное имя : I: РазноеЗдоровьеTRXTRXTV - Absolute PowerWeek 3TRXTV_Apr11_Power_WK3_Sequence.m4v
    Формат : MPEG-4
    Идентификатор кодека : M4V (M4V /M4A /mp42/isom)
    Размер файла : 32, 8 Мбайт
    Продолжительность : 2 м. 45 с.
    Общий поток : 1666 Кбит/сек
    Дата кодирования : UTC 2011-03-23 21: 03: 00
    Дата пометки : UTC 2011-03-23 21: 03: 03
    Видео
    Идентификатор : 1
    Формат : AVC
    Формат/Информация : Advanced Video Codec
    Профиль формата : Baseline@L3
    Настройки формата : 1 Ref Frames
    Параметр CABAC формата : Нет
    Параметр RefFrames формата : 1 кадр
    Идентификатор кодека : avc1
    Идентификатор кодека/Информация : Advanced Video Coding
    Продолжительность : 2 м. 45 с.
    Битрейт : 1538 Кбит/сек
    Ширина : 640 пикселей
    Высота : 360 пикселей
    Соотношение сторон : 16: 9
    Режим частоты кадров : Постоянный
    Частота кадров : 29, 970 (29970/1000) кадров/сек
    Цветовое пространство : YUV
    Субдискретизация насыщенности : 4: 2: 0
    Битовая глубина : 8 бит
    Тип развёртки : Прогрессивная
    Бит/(Пиксели*Кадры) : 0.223
    Размер потока : 30, 3 Мбайт (92%)
    Язык : English
    Дата кодирования : UTC 2011-03-23 21: 03: 00
    Дата пометки : UTC 2011-03-23 21: 03: 03
    Цветовой диапазон : Limited
    Основные цвета : BT.601 NTSC
    Характеристики трансфера : BT.709
    Коэффициенты матрицы : BT.601
    Аудио
    Идентификатор : 2
    Формат : AAC
    Формат/Информация : Advanced Audio Codec
    Профиль формата : LC
    Идентификатор кодека : mp4a-40-2
    Продолжительность : 2 м. 45 с.
    Продолжительность оригинала : 2 м. 45 с.
    Вид битрейта : Постоянный
    Битрейт : 128 Кбит/сек
    Каналы : 2 канала
    Расположение каналов : Front: L R
    Частота : 44, 1 КГц
    Частота кадров : 43, 066 кадра/сек (1024 SPF)
    Метод сжатия : С потерями
    Размер потока : 2, 44 Мбайт (7%)
    Размер потока оригинала : 2, 44 Мбайт (7%)
    Язык : English
    Дата кодирования : UTC 2011-03-23 21: 03: 00
    Дата пометки : UTC 2011-03-23 21: 03: 03
    Общее
    Полное имя : I: РазноеЗдоровьеTRXTRXTV - Absolute PowerWeek 3TRXTV_Apr11_Power_WK3_Tip.m4v
    Формат : MPEG-4
    Идентификатор кодека : M4V (M4V /M4A /mp42/isom)
    Размер файла : 30, 6 Мбайт
    Продолжительность : 2 м. 34 с.
    Общий поток : 1663 Кбит/сек
    Дата кодирования : UTC 2011-03-23 20: 02: 21
    Дата пометки : UTC 2011-03-23 20: 02: 24
    Видео
    Идентификатор : 1
    Формат : AVC
    Формат/Информация : Advanced Video Codec
    Профиль формата : Baseline@L3
    Настройки формата : 1 Ref Frames
    Параметр CABAC формата : Нет
    Параметр RefFrames формата : 1 кадр
    Идентификатор кодека : avc1
    Идентификатор кодека/Информация : Advanced Video Coding
    Продолжительность : 2 м. 34 с.
    Битрейт : 1534 Кбит/сек
    Ширина : 640 пикселей
    Высота : 360 пикселей
    Соотношение сторон : 16: 9
    Режим частоты кадров : Постоянный
    Частота кадров : 29, 970 (29970/1000) кадров/сек
    Цветовое пространство : YUV
    Субдискретизация насыщенности : 4: 2: 0
    Битовая глубина : 8 бит
    Тип развёртки : Прогрессивная
    Бит/(Пиксели*Кадры) : 0.222
    Размер потока : 28, 2 Мбайт (92%)
    Язык : English
    Дата кодирования : UTC 2011-03-23 20: 02: 21
    Дата пометки : UTC 2011-03-23 20: 02: 24
    Цветовой диапазон : Limited
    Основные цвета : BT.601 NTSC
    Характеристики трансфера : BT.709
    Коэффициенты матрицы : BT.601
    Аудио
    Идентификатор : 2
    Формат : AAC
    Формат/Информация : Advanced Audio Codec
    Профиль формата : LC
    Идентификатор кодека : mp4a-40-2
    Продолжительность : 2 м. 34 с.
    Продолжительность оригинала : 2 м. 34 с.
    Вид битрейта : Постоянный
    Битрейт : 128 Кбит/сек
    Каналы : 2 канала
    Расположение каналов : Front: L R
    Частота : 44, 1 КГц
    Частота кадров : 43, 066 кадра/сек (1024 SPF)
    Метод сжатия : С потерями
    Размер потока : 2, 30 Мбайт (8%)
    Размер потока оригинала : 2, 30 Мбайт (8%)
    Язык : English
    Дата кодирования : UTC 2011-03-23 20: 02: 21
    Дата пометки : UTC 2011-03-23 20: 02: 24
    Общее
    Полное имя : I: РазноеЗдоровьеTRXTRXTV - Absolute PowerWeek 4TRXTV_Apr11_Power_WK4_Movement.m4v
    Формат : MPEG-4
    Идентификатор кодека : M4V (M4V /M4A /mp42/isom)
    Размер файла : 26, 1 Мбайт
    Продолжительность : 2 м. 15 с.
    Общий поток : 1623 Кбит/сек
    Дата кодирования : UTC 2011-03-23 23: 42: 20
    Дата пометки : UTC 2011-03-23 23: 42: 21
    Видео
    Идентификатор : 1
    Формат : AVC
    Формат/Информация : Advanced Video Codec
    Профиль формата : Baseline@L3
    Настройки формата : 1 Ref Frames
    Параметр CABAC формата : Нет
    Параметр RefFrames формата : 1 кадр
    Параметр GOP формата : M=1, N=120
    Идентификатор кодека : avc1
    Идентификатор кодека/Информация : Advanced Video Coding
    Продолжительность : 2 м. 15 с.
    Битрейт : 1493 Кбит/сек
    Ширина : 640 пикселей
    Высота : 360 пикселей
    Соотношение сторон : 16: 9
    Режим частоты кадров : Постоянный
    Частота кадров : 23, 976 (23976/1000) кадра/сек
    Цветовое пространство : YUV
    Субдискретизация насыщенности : 4: 2: 0
    Битовая глубина : 8 бит
    Тип развёртки : Прогрессивная
    Бит/(Пиксели*Кадры) : 0.270
    Размер потока : 24, 0 Мбайт (92%)
    Язык : English
    Дата кодирования : UTC 2011-03-23 23: 42: 20
    Дата пометки : UTC 2011-03-23 23: 42: 21
    Цветовой диапазон : Limited
    Основные цвета : BT.601 NTSC
    Характеристики трансфера : BT.709
    Коэффициенты матрицы : BT.601
    Аудио
    Идентификатор : 2
    Формат : AAC
    Формат/Информация : Advanced Audio Codec
    Профиль формата : LC
    Идентификатор кодека : mp4a-40-2
    Продолжительность : 2 м. 15 с.
    Вид битрейта : Постоянный
    Битрейт : 128 Кбит/сек
    Каналы : 2 канала
    Расположение каналов : Front: L R
    Частота : 44, 1 КГц
    Частота кадров : 43, 066 кадра/сек (1024 SPF)
    Метод сжатия : С потерями
    Размер потока : 2, 04 Мбайт (8%)
    Язык : English
    Дата кодирования : UTC 2011-03-23 23: 42: 20
    Дата пометки : UTC 2011-03-23 23: 42: 21
    Общее
    Полное имя : I: РазноеЗдоровьеTRXTRXTV - Absolute PowerWeek 4TRXTV_Apr11_Power_WK4_Sequence.m4v
    Формат : MPEG-4
    Идентификатор кодека : M4V (M4V /M4A /mp42/isom)
    Размер файла : 36, 4 Мбайт
    Продолжительность : 3 м. 13 с.
    Общий поток : 1578 Кбит/сек
    Дата кодирования : UTC 2011-03-23 23: 35: 54
    Дата пометки : UTC 2011-03-23 23: 35: 56
    Видео
    Идентификатор : 1
    Формат : AVC
    Формат/Информация : Advanced Video Codec
    Профиль формата : Baseline@L3
    Настройки формата : 1 Ref Frames
    Параметр CABAC формата : Нет
    Параметр RefFrames формата : 1 кадр
    Параметр GOP формата : M=1, N=120
    Идентификатор кодека : avc1
    Идентификатор кодека/Информация : Advanced Video Coding
    Продолжительность : 3 м. 13 с.
    Битрейт : 1449 Кбит/сек
    Ширина : 640 пикселей
    Высота : 360 пикселей
    Соотношение сторон : 16: 9
    Режим частоты кадров : Постоянный
    Частота кадров : 23, 976 (23976/1000) кадра/сек
    Цветовое пространство : YUV
    Субдискретизация насыщенности : 4: 2: 0
    Битовая глубина : 8 бит
    Тип развёртки : Прогрессивная
    Бит/(Пиксели*Кадры) : 0.262
    Размер потока : 33, 4 Мбайт (92%)
    Язык : English
    Дата кодирования : UTC 2011-03-23 23: 35: 54
    Дата пометки : UTC 2011-03-23 23: 35: 56
    Цветовой диапазон : Limited
    Основные цвета : BT.601 NTSC
    Характеристики трансфера : BT.709
    Коэффициенты матрицы : BT.601
    Аудио
    Идентификатор : 2
    Формат : AAC
    Формат/Информация : Advanced Audio Codec
    Профиль формата : LC
    Идентификатор кодека : mp4a-40-2
    Продолжительность : 3 м. 13 с.
    Продолжительность оригинала : 3 м. 13 с.
    Вид битрейта : Постоянный
    Битрейт : 128 Кбит/сек
    Каналы : 2 канала
    Расположение каналов : Front: L R
    Частота : 44, 1 КГц
    Частота кадров : 43, 066 кадра/сек (1024 SPF)
    Метод сжатия : С потерями
    Размер потока : 2, 90 Мбайт (8%)
    Размер потока оригинала : 2, 90 Мбайт (8%)
    Язык : English
    Дата кодирования : UTC 2011-03-23 23: 35: 54
    Дата пометки : UTC 2011-03-23 23: 35: 56
    Общее
    Полное имя : I: РазноеЗдоровьеTRXTRXTV - Absolute PowerWeek 4TRXTV_Apr11_Power_WK4_Tip.m4v
    Формат : MPEG-4
    Идентификатор кодека : M4V (M4V /M4A /mp42/isom)
    Размер файла : 29, 2 Мбайт
    Продолжительность : 2 м. 36 с.
    Общий поток : 1566 Кбит/сек
    Дата кодирования : UTC 2011-03-23 23: 38: 18
    Дата пометки : UTC 2011-03-23 23: 38: 19
    Видео
    Идентификатор : 1
    Формат : AVC
    Формат/Информация : Advanced Video Codec
    Профиль формата : Baseline@L3
    Настройки формата : 1 Ref Frames
    Параметр CABAC формата : Нет
    Параметр RefFrames формата : 1 кадр
    Параметр GOP формата : M=1, N=120
    Идентификатор кодека : avc1
    Идентификатор кодека/Информация : Advanced Video Coding
    Продолжительность : 2 м. 36 с.
    Битрейт : 1466 Кбит/сек
    Ширина : 640 пикселей
    Высота : 360 пикселей
    Соотношение сторон : 16: 9
    Режим частоты кадров : Постоянный
    Частота кадров : 23, 976 (23976/1000) кадра/сек
    Цветовое пространство : YUV
    Субдискретизация насыщенности : 4: 2: 0
    Битовая глубина : 8 бит
    Тип развёртки : Прогрессивная
    Бит/(Пиксели*Кадры) : 0.265
    Размер потока : 27, 4 Мбайт (94%)
    Язык : English
    Дата кодирования : UTC 2011-03-23 23: 38: 18
    Дата пометки : UTC 2011-03-23 23: 38: 19
    Цветовой диапазон : Limited
    Основные цвета : BT.601 NTSC
    Характеристики трансфера : BT.709
    Коэффициенты матрицы : BT.601
    Аудио
    Идентификатор : 2
    Формат : AAC
    Формат/Информация : Advanced Audio Codec
    Профиль формата : LC
    Идентификатор кодека : mp4a-40-2
    Продолжительность : 2 м. 36 с.
    Продолжительность оригинала : 2 м. 36 с.
    Вид битрейта : Постоянный
    Битрейт : 96, 0 Кбит/сек
    Номинальный битрейт : 128 Кбит/сек
    Каналы : 2 канала
    Расположение каналов : Front: L R
    Частота : 44, 1 КГц
    Частота кадров : 43, 066 кадра/сек (1024 SPF)
    Метод сжатия : С потерями
    Размер потока : 1, 80 Мбайт (6%)
    Размер потока оригинала : 1, 80 Мбайт (6%)
    Язык : English
    Дата кодирования : UTC 2011-03-23 23: 38: 18
    Дата пометки : UTC 2011-03-23 23: 38: 19
    Скриншоты:


    Время раздачи: Круглосуточно (до появления первых 3-5 скачавших)


    TRX TV | Absolute Power (2011) WEB-DLRip [H.264][EN]
    Рейтинг →
     (голосов: 1, оценка 5/5, голосовать можно 1 раз )

    Другие торренты по теме:

  • Sunrise - Absolute Clarity (2016) Japanese Edition [FLAC|Lossless|image + .cue] <Melodic Power Metal>


    • Комментарии (0):

      Информация

      Информация

        Посетители, находящиеся в группе Гости, не могут оставлять комментарии в данной новости.

        ↓ Меню




        ↓ Опрос

        Вы добавили сайт в закладки?
        Да
        Нет


        Top 10 за месяц (Книги)