.
Авторизация | Регистрация
Хочешь лучшие торренты? Добавь свой email!
Добавить

Торрент скачать бесплатно

  • support: webmaster@btracker.org
» » TRX TV | Endurance (2011) WEB-DLRip [H.264][EN] торрент скачать бесплатно


    TRX TV | Endurance (2011) WEB-DLRip [H.264][EN] торрент скачать бесплатно

    Опубликовал: Админ | Дата: 2-04-2018, 05:00 | .torrent скачали: 3

    TRX TV | Endurance (2011) WEB-DLRip [H.264][EN]Автор (режиссер): TRX TV
    Производство: TRX TV
    Жанр: Функциональный тренинг

    Описание

    Выпуск TRX TV по развитию функциональной выносливости
    Продолжительность: 01: 21: 11
    Качество видео: WEB-DLRip
    Перевод: Отсутствует
    Язык озвучки: Английский
    Видео: AVC/H.264, 640x360, ~1550 Kbps
    Аудио: AAC, 2 ch, 128 Kbps

    Общее
    Полное имя : I: РазноеЗдоровьеTRXTRXTV - EnduranceTRXFORCE.m4v
    Формат : MPEG-4
    Идентификатор кодека : M4V (M4V /M4A /mp42/isom)
    Размер файла : 428 Мбайт
    Продолжительность : 35 м. 32 с.
    Общий поток : 1683 Кбит/сек
    Дата кодирования : UTC 2011-09-26 21: 36: 41
    Дата пометки : UTC 2011-09-26 21: 37: 01
    Видео
    Идентификатор : 1
    Формат : AVC
    Формат/Информация : Advanced Video Codec
    Профиль формата : Baseline@L3
    Настройки формата : 1 Ref Frames
    Параметр CABAC формата : Нет
    Параметр RefFrames формата : 1 кадр
    Параметр GOP формата : M=1, N=120
    Идентификатор кодека : avc1
    Идентификатор кодека/Информация : Advanced Video Coding
    Продолжительность : 35 м. 32 с.
    Битрейт : 1550 Кбит/сек
    Ширина : 640 пикселей
    Высота : 360 пикселей
    Соотношение сторон : 16: 9
    Режим частоты кадров : Постоянный
    Частота кадров : 23, 976 (23976/1000) кадра/сек
    Цветовое пространство : YUV
    Субдискретизация насыщенности : 4: 2: 0
    Битовая глубина : 8 бит
    Тип развёртки : Прогрессивная
    Бит/(Пиксели*Кадры) : 0.281
    Размер потока : 394 Мбайт (92%)
    Язык : English
    Дата кодирования : UTC 2011-09-26 21: 36: 40
    Дата пометки : UTC 2011-09-26 21: 37: 01
    Цветовой диапазон : Limited
    Основные цвета : BT.601 NTSC
    Характеристики трансфера : BT.709
    Коэффициенты матрицы : BT.601
    Аудио
    Идентификатор : 2
    Формат : AAC
    Формат/Информация : Advanced Audio Codec
    Профиль формата : LC
    Идентификатор кодека : mp4a-40-2
    Продолжительность : 35 м. 32 с.
    Продолжительность оригинала : 35 м. 32 с.
    Вид битрейта : Постоянный
    Битрейт : 128 Кбит/сек
    Каналы : 2 канала
    Расположение каналов : Front: L R
    Частота : 44, 1 КГц
    Частота кадров : 43, 066 кадра/сек (1024 SPF)
    Метод сжатия : С потерями
    Размер потока : 32, 9 Мбайт (8%)
    Размер потока оригинала : 32, 9 Мбайт (8%)
    Язык : English
    Дата кодирования : UTC 2011-09-26 21: 36: 40
    Дата пометки : UTC 2011-09-26 21: 37: 01
    Общее
    Полное имя : I: РазноеЗдоровьеTRXTRXTV - EnduranceTRXTV_OCT11_TRXFORCE_PDF.pdf
    Формат : PDF
    Версия формата : 1.5
    Размер файла : 551 Кбайт
    Текст
    Формат : PDF
    Общее
    Полное имя : I: РазноеЗдоровьеTRXTRXTV - EnduranceWeek 1TRXTV_OCT11_Endurance_Wk1_Movement.m4v
    Формат : MPEG-4
    Идентификатор кодека : M4V (M4V /M4A /mp42/isom)
    Размер файла : 19, 8 Мбайт
    Продолжительность : 1 м. 43 с.
    Общий поток : 1608 Кбит/сек
    Дата кодирования : UTC 2011-09-23 22: 40: 54
    Дата пометки : UTC 2011-09-23 22: 40: 55
    Видео
    Идентификатор : 1
    Формат : AVC
    Формат/Информация : Advanced Video Codec
    Профиль формата : Baseline@L3
    Настройки формата : 1 Ref Frames
    Параметр CABAC формата : Нет
    Параметр RefFrames формата : 1 кадр
    Параметр GOP формата : M=1, N=120
    Идентификатор кодека : avc1
    Идентификатор кодека/Информация : Advanced Video Coding
    Продолжительность : 1 м. 43 с.
    Битрейт : 1495 Кбит/сек
    Ширина : 640 пикселей
    Высота : 360 пикселей
    Соотношение сторон : 16: 9
    Режим частоты кадров : Постоянный
    Частота кадров : 23, 976 (23976/1000) кадра/сек
    Цветовое пространство : YUV
    Субдискретизация насыщенности : 4: 2: 0
    Битовая глубина : 8 бит
    Тип развёртки : Прогрессивная
    Бит/(Пиксели*Кадры) : 0.271
    Размер потока : 18, 4 Мбайт (93%)
    Язык : English
    Дата кодирования : UTC 2011-09-23 22: 40: 54
    Дата пометки : UTC 2011-09-23 22: 40: 55
    Цветовой диапазон : Limited
    Основные цвета : BT.601 NTSC
    Характеристики трансфера : BT.709
    Коэффициенты матрицы : BT.601
    Аудио
    Идентификатор : 2
    Формат : AAC
    Формат/Информация : Advanced Audio Codec
    Профиль формата : LC
    Идентификатор кодека : mp4a-40-2
    Продолжительность : 1 м. 43 с.
    Продолжительность оригинала : 1 м. 43 с.
    Вид битрейта : Постоянный
    Битрейт : 109 Кбит/сек
    Номинальный битрейт : 128 Кбит/сек
    Каналы : 2 канала
    Расположение каналов : Front: L R
    Частота : 44, 1 КГц
    Частота кадров : 43, 066 кадра/сек (1024 SPF)
    Метод сжатия : С потерями
    Размер потока : 1, 35 Мбайт (7%)
    Размер потока оригинала : 1, 35 Мбайт (7%)
    Язык : English
    Дата кодирования : UTC 2011-09-23 22: 40: 54
    Дата пометки : UTC 2011-09-23 22: 40: 55
    Общее
    Полное имя : I: РазноеЗдоровьеTRXTRXTV - EnduranceWeek 1TRXTV_OCT11_Endurance_Wk1_Sequence.m4v
    Формат : MPEG-4
    Идентификатор кодека : M4V (M4V /M4A /mp42/isom)
    Размер файла : 39, 7 Мбайт
    Продолжительность : 3 м. 30 с.
    Общий поток : 1583 Кбит/сек
    Дата кодирования : UTC 2011-09-23 22: 47: 34
    Дата пометки : UTC 2011-09-23 22: 47: 35
    Видео
    Идентификатор : 1
    Формат : AVC
    Формат/Информация : Advanced Video Codec
    Профиль формата : Baseline@L3
    Настройки формата : 1 Ref Frames
    Параметр CABAC формата : Нет
    Параметр RefFrames формата : 1 кадр
    Параметр GOP формата : M=1, N=120
    Идентификатор кодека : avc1
    Идентификатор кодека/Информация : Advanced Video Coding
    Продолжительность : 3 м. 30 с.
    Битрейт : 1456 Кбит/сек
    Ширина : 640 пикселей
    Высота : 360 пикселей
    Соотношение сторон : 16: 9
    Режим частоты кадров : Постоянный
    Частота кадров : 23, 976 (23976/1000) кадра/сек
    Цветовое пространство : YUV
    Субдискретизация насыщенности : 4: 2: 0
    Битовая глубина : 8 бит
    Тип развёртки : Прогрессивная
    Бит/(Пиксели*Кадры) : 0.264
    Размер потока : 36, 5 Мбайт (92%)
    Язык : English
    Дата кодирования : UTC 2011-09-23 22: 47: 34
    Дата пометки : UTC 2011-09-23 22: 47: 35
    Цветовой диапазон : Limited
    Основные цвета : BT.601 NTSC
    Характеристики трансфера : BT.709
    Коэффициенты матрицы : BT.601
    Аудио
    Идентификатор : 2
    Формат : AAC
    Формат/Информация : Advanced Audio Codec
    Профиль формата : LC
    Идентификатор кодека : mp4a-40-2
    Продолжительность : 3 м. 30 с.
    Продолжительность оригинала : 3 м. 30 с.
    Вид битрейта : Постоянный
    Битрейт : 128 Кбит/сек
    Каналы : 2 канала
    Расположение каналов : Front: L R
    Частота : 44, 1 КГц
    Частота кадров : 43, 066 кадра/сек (1024 SPF)
    Метод сжатия : С потерями
    Размер потока : 3, 09 Мбайт (8%)
    Размер потока оригинала : 3, 09 Мбайт (8%)
    Язык : English
    Дата кодирования : UTC 2011-09-23 22: 47: 34
    Дата пометки : UTC 2011-09-23 22: 47: 35
    Общее
    Полное имя : I: РазноеЗдоровьеTRXTRXTV - EnduranceWeek 1TRXTV_OCT11_Endurance_Wk1_Tip.m4v
    Формат : MPEG-4
    Идентификатор кодека : M4V (M4V /M4A /mp42/isom)
    Размер файла : 26, 7 Мбайт
    Продолжительность : 2 м. 22 с.
    Общий поток : 1567 Кбит/сек
    Дата кодирования : UTC 2011-09-23 22: 51: 09
    Дата пометки : UTC 2011-09-23 22: 51: 10
    Видео
    Идентификатор : 1
    Формат : AVC
    Формат/Информация : Advanced Video Codec
    Профиль формата : Baseline@L3
    Настройки формата : 1 Ref Frames
    Параметр CABAC формата : Нет
    Параметр RefFrames формата : 1 кадр
    Параметр GOP формата : M=1, N=120
    Идентификатор кодека : avc1
    Идентификатор кодека/Информация : Advanced Video Coding
    Продолжительность : 2 м. 22 с.
    Битрейт : 1454 Кбит/сек
    Ширина : 640 пикселей
    Высота : 360 пикселей
    Соотношение сторон : 16: 9
    Режим частоты кадров : Постоянный
    Частота кадров : 23, 976 (23976/1000) кадра/сек
    Цветовое пространство : YUV
    Субдискретизация насыщенности : 4: 2: 0
    Битовая глубина : 8 бит
    Тип развёртки : Прогрессивная
    Бит/(Пиксели*Кадры) : 0.263
    Размер потока : 24, 8 Мбайт (93%)
    Язык : English
    Дата кодирования : UTC 2011-09-23 22: 51: 09
    Дата пометки : UTC 2011-09-23 22: 51: 10
    Цветовой диапазон : Limited
    Основные цвета : BT.601 NTSC
    Характеристики трансфера : BT.709
    Коэффициенты матрицы : BT.601
    Аудио
    Идентификатор : 2
    Формат : AAC
    Формат/Информация : Advanced Audio Codec
    Профиль формата : LC
    Идентификатор кодека : mp4a-40-2
    Продолжительность : 2 м. 22 с.
    Продолжительность оригинала : 2 м. 22 с.
    Вид битрейта : Постоянный
    Битрейт : 109 Кбит/сек
    Номинальный битрейт : 128 Кбит/сек
    Каналы : 2 канала
    Расположение каналов : Front: L R
    Частота : 44, 1 КГц
    Частота кадров : 43, 066 кадра/сек (1024 SPF)
    Метод сжатия : С потерями
    Размер потока : 1, 86 Мбайт (7%)
    Размер потока оригинала : 1, 86 Мбайт (7%)
    Язык : English
    Дата кодирования : UTC 2011-09-23 22: 51: 09
    Дата пометки : UTC 2011-09-23 22: 51: 10
    Общее
    Полное имя : I: РазноеЗдоровьеTRXTRXTV - EnduranceWeek 2TRXTV_OCT11_Endurance_Wk2_Movement.m4v
    Формат : MPEG-4
    Идентификатор кодека : M4V (M4V /M4A /mp42/isom)
    Размер файла : 24, 2 Мбайт
    Продолжительность : 2 м. 5 с.
    Общий поток : 1625 Кбит/сек
    Дата кодирования : UTC 2011-09-23 22: 54: 17
    Дата пометки : UTC 2011-09-23 22: 54: 17
    Видео
    Идентификатор : 1
    Формат : AVC
    Формат/Информация : Advanced Video Codec
    Профиль формата : Baseline@L3
    Настройки формата : 1 Ref Frames
    Параметр CABAC формата : Нет
    Параметр RefFrames формата : 1 кадр
    Параметр GOP формата : M=1, N=120
    Идентификатор кодека : avc1
    Идентификатор кодека/Информация : Advanced Video Coding
    Продолжительность : 2 м. 5 с.
    Битрейт : 1511 Кбит/сек
    Ширина : 640 пикселей
    Высота : 360 пикселей
    Соотношение сторон : 16: 9
    Режим частоты кадров : Постоянный
    Частота кадров : 23, 976 (23976/1000) кадра/сек
    Цветовое пространство : YUV
    Субдискретизация насыщенности : 4: 2: 0
    Битовая глубина : 8 бит
    Тип развёртки : Прогрессивная
    Бит/(Пиксели*Кадры) : 0.274
    Размер потока : 22, 5 Мбайт (93%)
    Язык : English
    Дата кодирования : UTC 2011-09-23 22: 54: 17
    Дата пометки : UTC 2011-09-23 22: 54: 17
    Цветовой диапазон : Limited
    Основные цвета : BT.601 NTSC
    Характеристики трансфера : BT.709
    Коэффициенты матрицы : BT.601
    Аудио
    Идентификатор : 2
    Формат : AAC
    Формат/Информация : Advanced Audio Codec
    Профиль формата : LC
    Идентификатор кодека : mp4a-40-2
    Продолжительность : 2 м. 5 с.
    Продолжительность оригинала : 2 м. 5 с.
    Вид битрейта : Постоянный
    Битрейт : 110 Кбит/сек
    Номинальный битрейт : 128 Кбит/сек
    Каналы : 2 канала
    Расположение каналов : Front: L R
    Частота : 44, 1 КГц
    Частота кадров : 43, 066 кадра/сек (1024 SPF)
    Метод сжатия : С потерями
    Размер потока : 1, 64 Мбайт (7%)
    Размер потока оригинала : 1, 64 Мбайт (7%)
    Язык : English
    Дата кодирования : UTC 2011-09-23 22: 54: 17
    Дата пометки : UTC 2011-09-23 22: 54: 17
    Общее
    Полное имя : I: РазноеЗдоровьеTRXTRXTV - EnduranceWeek 2TRXTV_OCT11_Endurance_Wk2_Sequence.m4v
    Формат : MPEG-4
    Идентификатор кодека : M4V (M4V /M4A /mp42/isom)
    Размер файла : 38, 4 Мбайт
    Продолжительность : 3 м. 22 с.
    Общий поток : 1594 Кбит/сек
    Дата кодирования : UTC 2011-09-23 23: 00: 39
    Дата пометки : UTC 2011-09-23 23: 00: 40
    Видео
    Идентификатор : 1
    Формат : AVC
    Формат/Информация : Advanced Video Codec
    Профиль формата : Baseline@L3
    Настройки формата : 1 Ref Frames
    Параметр CABAC формата : Нет
    Параметр RefFrames формата : 1 кадр
    Параметр GOP формата : M=1, N=120
    Идентификатор кодека : avc1
    Идентификатор кодека/Информация : Advanced Video Coding
    Продолжительность : 3 м. 22 с.
    Битрейт : 1467 Кбит/сек
    Ширина : 640 пикселей
    Высота : 360 пикселей
    Соотношение сторон : 16: 9
    Режим частоты кадров : Постоянный
    Частота кадров : 23, 976 (23976/1000) кадра/сек
    Цветовое пространство : YUV
    Субдискретизация насыщенности : 4: 2: 0
    Битовая глубина : 8 бит
    Тип развёртки : Прогрессивная
    Бит/(Пиксели*Кадры) : 0.266
    Размер потока : 35, 4 Мбайт (92%)
    Язык : English
    Дата кодирования : UTC 2011-09-23 23: 00: 39
    Дата пометки : UTC 2011-09-23 23: 00: 40
    Цветовой диапазон : Limited
    Основные цвета : BT.601 NTSC
    Характеристики трансфера : BT.709
    Коэффициенты матрицы : BT.601
    Аудио
    Идентификатор : 2
    Формат : AAC
    Формат/Информация : Advanced Audio Codec
    Профиль формата : LC
    Идентификатор кодека : mp4a-40-2
    Продолжительность : 3 м. 22 с.
    Продолжительность оригинала : 3 м. 22 с.
    Вид битрейта : Постоянный
    Битрейт : 128 Кбит/сек
    Каналы : 2 канала
    Расположение каналов : Front: L R
    Частота : 44, 1 КГц
    Частота кадров : 43, 066 кадра/сек (1024 SPF)
    Метод сжатия : С потерями
    Размер потока : 2, 97 Мбайт (8%)
    Размер потока оригинала : 2, 97 Мбайт (8%)
    Язык : English
    Дата кодирования : UTC 2011-09-23 23: 00: 39
    Дата пометки : UTC 2011-09-23 23: 00: 40
    Общее
    Полное имя : I: РазноеЗдоровьеTRXTRXTV - EnduranceWeek 2TRXTV_OCT11_Endurance_Wk2_Tip.m4v
    Формат : MPEG-4
    Идентификатор кодека : M4V (M4V /M4A /mp42/isom)
    Размер файла : 29, 3 Мбайт
    Продолжительность : 2 м. 33 с.
    Общий поток : 1600 Кбит/сек
    Дата кодирования : UTC 2011-09-23 23: 05: 29
    Дата пометки : UTC 2011-09-23 23: 05: 30
    Видео
    Идентификатор : 1
    Формат : AVC
    Формат/Информация : Advanced Video Codec
    Профиль формата : Baseline@L3
    Настройки формата : 1 Ref Frames
    Параметр CABAC формата : Нет
    Параметр RefFrames формата : 1 кадр
    Параметр GOP формата : M=1, N=120
    Идентификатор кодека : avc1
    Идентификатор кодека/Информация : Advanced Video Coding
    Продолжительность : 2 м. 33 с.
    Битрейт : 1488 Кбит/сек
    Ширина : 640 пикселей
    Высота : 360 пикселей
    Соотношение сторон : 16: 9
    Режим частоты кадров : Постоянный
    Частота кадров : 23, 976 (23976/1000) кадра/сек
    Цветовое пространство : YUV
    Субдискретизация насыщенности : 4: 2: 0
    Битовая глубина : 8 бит
    Тип развёртки : Прогрессивная
    Бит/(Пиксели*Кадры) : 0.269
    Размер потока : 27, 2 Мбайт (93%)
    Язык : English
    Дата кодирования : UTC 2011-09-23 23: 05: 29
    Дата пометки : UTC 2011-09-23 23: 05: 30
    Цветовой диапазон : Limited
    Основные цвета : BT.601 NTSC
    Характеристики трансфера : BT.709
    Коэффициенты матрицы : BT.601
    Аудио
    Идентификатор : 2
    Формат : AAC
    Формат/Информация : Advanced Audio Codec
    Профиль формата : LC
    Идентификатор кодека : mp4a-40-2
    Продолжительность : 2 м. 33 с.
    Продолжительность оригинала : 2 м. 33 с.
    Вид битрейта : Постоянный
    Битрейт : 109 Кбит/сек
    Номинальный битрейт : 128 Кбит/сек
    Каналы : 2 канала
    Расположение каналов : Front: L R
    Частота : 44, 1 КГц
    Частота кадров : 43, 066 кадра/сек (1024 SPF)
    Метод сжатия : С потерями
    Размер потока : 1, 99 Мбайт (7%)
    Размер потока оригинала : 1, 99 Мбайт (7%)
    Язык : English
    Дата кодирования : UTC 2011-09-23 23: 05: 29
    Дата пометки : UTC 2011-09-23 23: 05: 30
    Общее
    Полное имя : I: РазноеЗдоровьеTRXTRXTV - EnduranceWeek 3TRXTV_OCT11_Endurance_Wk3_Movement.m4v
    Формат : MPEG-4
    Идентификатор кодека : M4V (M4V /M4A /mp42/isom)
    Размер файла : 22, 4 Мбайт
    Продолжительность : 2 м. 1 с.
    Общий поток : 1552 Кбит/сек
    Дата кодирования : UTC 2011-09-23 23: 08: 40
    Дата пометки : UTC 2011-09-23 23: 08: 41
    Видео
    Идентификатор : 1
    Формат : AVC
    Формат/Информация : Advanced Video Codec
    Профиль формата : Baseline@L3
    Настройки формата : 1 Ref Frames
    Параметр CABAC формата : Нет
    Параметр RefFrames формата : 1 кадр
    Параметр GOP формата : M=1, N=120
    Идентификатор кодека : avc1
    Идентификатор кодека/Информация : Advanced Video Coding
    Продолжительность : 2 м. 1 с.
    Битрейт : 1439 Кбит/сек
    Ширина : 640 пикселей
    Высота : 360 пикселей
    Соотношение сторон : 16: 9
    Режим частоты кадров : Постоянный
    Частота кадров : 23, 976 (23976/1000) кадра/сек
    Цветовое пространство : YUV
    Субдискретизация насыщенности : 4: 2: 0
    Битовая глубина : 8 бит
    Тип развёртки : Прогрессивная
    Бит/(Пиксели*Кадры) : 0.260
    Размер потока : 20, 8 Мбайт (93%)
    Язык : English
    Дата кодирования : UTC 2011-09-23 23: 08: 40
    Дата пометки : UTC 2011-09-23 23: 08: 41
    Цветовой диапазон : Limited
    Основные цвета : BT.601 NTSC
    Характеристики трансфера : BT.709
    Коэффициенты матрицы : BT.601
    Аудио
    Идентификатор : 2
    Формат : AAC
    Формат/Информация : Advanced Audio Codec
    Профиль формата : LC
    Идентификатор кодека : mp4a-40-2
    Продолжительность : 2 м. 1 с.
    Продолжительность оригинала : 2 м. 1 с.
    Вид битрейта : Постоянный
    Битрейт : 109 Кбит/сек
    Номинальный битрейт : 128 Кбит/сек
    Каналы : 2 канала
    Расположение каналов : Front: L R
    Частота : 44, 1 КГц
    Частота кадров : 43, 066 кадра/сек (1024 SPF)
    Метод сжатия : С потерями
    Размер потока : 1, 58 Мбайт (7%)
    Размер потока оригинала : 1, 58 Мбайт (7%)
    Язык : English
    Дата кодирования : UTC 2011-09-23 23: 08: 40
    Дата пометки : UTC 2011-09-23 23: 08: 41
    Общее
    Полное имя : I: РазноеЗдоровьеTRXTRXTV - EnduranceWeek 3TRXTV_OCT11_Endurance_Wk3_Sequence.m4v
    Формат : MPEG-4
    Идентификатор кодека : M4V (M4V /M4A /mp42/isom)
    Размер файла : 50, 6 Мбайт
    Продолжительность : 4 м. 23 с.
    Общий поток : 1609 Кбит/сек
    Дата кодирования : UTC 2011-09-23 23: 17: 10
    Дата пометки : UTC 2011-09-23 23: 17: 12
    Видео
    Идентификатор : 1
    Формат : AVC
    Формат/Информация : Advanced Video Codec
    Профиль формата : Baseline@L3
    Настройки формата : 1 Ref Frames
    Параметр CABAC формата : Нет
    Параметр RefFrames формата : 1 кадр
    Параметр GOP формата : M=1, N=120
    Идентификатор кодека : avc1
    Идентификатор кодека/Информация : Advanced Video Coding
    Продолжительность : 4 м. 23 с.
    Битрейт : 1481 Кбит/сек
    Ширина : 640 пикселей
    Высота : 360 пикселей
    Соотношение сторон : 16: 9
    Режим частоты кадров : Постоянный
    Частота кадров : 23, 976 (23976/1000) кадра/сек
    Цветовое пространство : YUV
    Субдискретизация насыщенности : 4: 2: 0
    Битовая глубина : 8 бит
    Тип развёртки : Прогрессивная
    Бит/(Пиксели*Кадры) : 0.268
    Размер потока : 46, 6 Мбайт (92%)
    Язык : English
    Дата кодирования : UTC 2011-09-23 23: 17: 10
    Дата пометки : UTC 2011-09-23 23: 17: 12
    Цветовой диапазон : Limited
    Основные цвета : BT.601 NTSC
    Характеристики трансфера : BT.709
    Коэффициенты матрицы : BT.601
    Аудио
    Идентификатор : 2
    Формат : AAC
    Формат/Информация : Advanced Audio Codec
    Профиль формата : LC
    Идентификатор кодека : mp4a-40-2
    Продолжительность : 4 м. 23 с.
    Продолжительность оригинала : 4 м. 23 с.
    Вид битрейта : Постоянный
    Битрейт : 128 Кбит/сек
    Каналы : 2 канала
    Расположение каналов : Front: L R
    Частота : 44, 1 КГц
    Частота кадров : 43, 066 кадра/сек (1024 SPF)
    Метод сжатия : С потерями
    Размер потока : 3, 90 Мбайт (8%)
    Размер потока оригинала : 3, 90 Мбайт (8%)
    Язык : English
    Дата кодирования : UTC 2011-09-23 23: 17: 10
    Дата пометки : UTC 2011-09-23 23: 17: 12
    Общее
    Полное имя : I: РазноеЗдоровьеTRXTRXTV - EnduranceWeek 3TRXTV_OCT11_Endurance_Wk3_Tip.m4v
    Формат : MPEG-4
    Идентификатор кодека : M4V (M4V /M4A /mp42/isom)
    Размер файла : 31, 7 Мбайт
    Продолжительность : 2 м. 46 с.
    Общий поток : 1598 Кбит/сек
    Дата кодирования : UTC 2011-09-23 23: 21: 28
    Дата пометки : UTC 2011-09-23 23: 21: 29
    Видео
    Идентификатор : 1
    Формат : AVC
    Формат/Информация : Advanced Video Codec
    Профиль формата : Baseline@L3
    Настройки формата : 1 Ref Frames
    Параметр CABAC формата : Нет
    Параметр RefFrames формата : 1 кадр
    Параметр GOP формата : M=1, N=120
    Идентификатор кодека : avc1
    Идентификатор кодека/Информация : Advanced Video Coding
    Продолжительность : 2 м. 46 с.
    Битрейт : 1485 Кбит/сек
    Ширина : 640 пикселей
    Высота : 360 пикселей
    Соотношение сторон : 16: 9
    Режим частоты кадров : Постоянный
    Частота кадров : 23, 976 (23976/1000) кадра/сек
    Цветовое пространство : YUV
    Субдискретизация насыщенности : 4: 2: 0
    Битовая глубина : 8 бит
    Тип развёртки : Прогрессивная
    Бит/(Пиксели*Кадры) : 0.269
    Размер потока : 29, 4 Мбайт (93%)
    Язык : English
    Дата кодирования : UTC 2011-09-23 23: 21: 28
    Дата пометки : UTC 2011-09-23 23: 21: 29
    Цветовой диапазон : Limited
    Основные цвета : BT.601 NTSC
    Характеристики трансфера : BT.709
    Коэффициенты матрицы : BT.601
    Аудио
    Идентификатор : 2
    Формат : AAC
    Формат/Информация : Advanced Audio Codec
    Профиль формата : LC
    Идентификатор кодека : mp4a-40-2
    Продолжительность : 2 м. 46 с.
    Продолжительность оригинала : 2 м. 46 с.
    Вид битрейта : Постоянный
    Битрейт : 109 Кбит/сек
    Номинальный битрейт : 128 Кбит/сек
    Каналы : 2 канала
    Расположение каналов : Front: L R
    Частота : 44, 1 КГц
    Частота кадров : 43, 066 кадра/сек (1024 SPF)
    Метод сжатия : С потерями
    Размер потока : 2, 16 Мбайт (7%)
    Размер потока оригинала : 2, 16 Мбайт (7%)
    Язык : English
    Дата кодирования : UTC 2011-09-23 23: 21: 28
    Дата пометки : UTC 2011-09-23 23: 21: 29
    Общее
    Полное имя : I: РазноеЗдоровьеTRXTRXTV - EnduranceWeek 4TRXTV_OCT11_Endurance_Wk4_Movement.m4v
    Формат : MPEG-4
    Идентификатор кодека : M4V (M4V /M4A /mp42/isom)
    Размер файла : 41, 3 Мбайт
    Продолжительность : 3 м. 39 с.
    Общий поток : 1576 Кбит/сек
    Дата кодирования : UTC 2011-09-23 23: 28: 46
    Дата пометки : UTC 2011-09-23 23: 28: 47
    Видео
    Идентификатор : 1
    Формат : AVC
    Формат/Информация : Advanced Video Codec
    Профиль формата : Baseline@L3
    Настройки формата : 1 Ref Frames
    Параметр CABAC формата : Нет
    Параметр RefFrames формата : 1 кадр
    Параметр GOP формата : M=1, N=120
    Идентификатор кодека : avc1
    Идентификатор кодека/Информация : Advanced Video Coding
    Продолжительность : 3 м. 39 с.
    Битрейт : 1462 Кбит/сек
    Ширина : 640 пикселей
    Высота : 360 пикселей
    Соотношение сторон : 16: 9
    Режим частоты кадров : Постоянный
    Частота кадров : 23, 976 (23976/1000) кадра/сек
    Цветовое пространство : YUV
    Субдискретизация насыщенности : 4: 2: 0
    Битовая глубина : 8 бит
    Тип развёртки : Прогрессивная
    Бит/(Пиксели*Кадры) : 0.265
    Размер потока : 38, 3 Мбайт (93%)
    Язык : English
    Дата кодирования : UTC 2011-09-23 23: 28: 46
    Дата пометки : UTC 2011-09-23 23: 28: 47
    Цветовой диапазон : Limited
    Основные цвета : BT.601 NTSC
    Характеристики трансфера : BT.709
    Коэффициенты матрицы : BT.601
    Аудио
    Идентификатор : 2
    Формат : AAC
    Формат/Информация : Advanced Audio Codec
    Профиль формата : LC
    Идентификатор кодека : mp4a-40-2
    Продолжительность : 3 м. 39 с.
    Продолжительность оригинала : 3 м. 39 с.
    Вид битрейта : Постоянный
    Битрейт : 110 Кбит/сек
    Номинальный битрейт : 128 Кбит/сек
    Каналы : 2 канала
    Расположение каналов : Front: L R
    Частота : 44, 1 КГц
    Частота кадров : 43, 066 кадра/сек (1024 SPF)
    Метод сжатия : С потерями
    Размер потока : 2, 88 Мбайт (7%)
    Размер потока оригинала : 2, 88 Мбайт (7%)
    Язык : English
    Дата кодирования : UTC 2011-09-23 23: 28: 46
    Дата пометки : UTC 2011-09-23 23: 28: 47
    Общее
    Полное имя : I: РазноеЗдоровьеTRXTRXTV - EnduranceWeek 4TRXTV_OCT11_Endurance_Wk4_Sequence.m4v
    Формат : MPEG-4
    Идентификатор кодека : M4V (M4V /M4A /mp42/isom)
    Размер файла : 38, 4 Мбайт
    Продолжительность : 3 м. 24 с.
    Общий поток : 1574 Кбит/сек
    Дата кодирования : UTC 2011-09-23 23: 35: 22
    Дата пометки : UTC 2011-09-23 23: 35: 23
    Видео
    Идентификатор : 1
    Формат : AVC
    Формат/Информация : Advanced Video Codec
    Профиль формата : Baseline@L3
    Настройки формата : 1 Ref Frames
    Параметр CABAC формата : Нет
    Параметр RefFrames формата : 1 кадр
    Параметр GOP формата : M=1, N=120
    Идентификатор кодека : avc1
    Идентификатор кодека/Информация : Advanced Video Coding
    Продолжительность : 3 м. 24 с.
    Битрейт : 1447 Кбит/сек
    Ширина : 640 пикселей
    Высота : 360 пикселей
    Соотношение сторон : 16: 9
    Режим частоты кадров : Постоянный
    Частота кадров : 23, 976 (23976/1000) кадра/сек
    Цветовое пространство : YUV
    Субдискретизация насыщенности : 4: 2: 0
    Битовая глубина : 8 бит
    Тип развёртки : Прогрессивная
    Бит/(Пиксели*Кадры) : 0.262
    Размер потока : 35, 3 Мбайт (92%)
    Язык : English
    Дата кодирования : UTC 2011-09-23 23: 35: 21
    Дата пометки : UTC 2011-09-23 23: 35: 23
    Цветовой диапазон : Limited
    Основные цвета : BT.601 NTSC
    Характеристики трансфера : BT.709
    Коэффициенты матрицы : BT.601
    Аудио
    Идентификатор : 2
    Формат : AAC
    Формат/Информация : Advanced Audio Codec
    Профиль формата : LC
    Идентификатор кодека : mp4a-40-2
    Продолжительность : 3 м. 24 с.
    Продолжительность оригинала : 3 м. 24 с.
    Вид битрейта : Постоянный
    Битрейт : 128 Кбит/сек
    Каналы : 2 канала
    Расположение каналов : Front: L R
    Частота : 44, 1 КГц
    Частота кадров : 43, 066 кадра/сек (1024 SPF)
    Метод сжатия : С потерями
    Размер потока : 3, 01 Мбайт (8%)
    Размер потока оригинала : 3, 01 Мбайт (8%)
    Язык : English
    Дата кодирования : UTC 2011-09-23 23: 35: 21
    Дата пометки : UTC 2011-09-23 23: 35: 23
    Общее
    Полное имя : I: РазноеЗдоровьеTRXTRXTV - EnduranceWeek 4TRXTV_OCT11_Endurance_Wk4_Tip.m4v
    Формат : MPEG-4
    Идентификатор кодека : M4V (M4V /M4A /mp42/isom)
    Размер файла : 27, 9 Мбайт
    Продолжительность : 2 м. 25 с.
    Общий поток : 1605 Кбит/сек
    Дата кодирования : UTC 2011-09-23 23: 39: 04
    Дата пометки : UTC 2011-09-23 23: 39: 05
    Видео
    Идентификатор : 1
    Формат : AVC
    Формат/Информация : Advanced Video Codec
    Профиль формата : Baseline@L3
    Настройки формата : 1 Ref Frames
    Параметр CABAC формата : Нет
    Параметр RefFrames формата : 1 кадр
    Параметр GOP формата : M=1, N=120
    Идентификатор кодека : avc1
    Идентификатор кодека/Информация : Advanced Video Coding
    Продолжительность : 2 м. 25 с.
    Битрейт : 1492 Кбит/сек
    Ширина : 640 пикселей
    Высота : 360 пикселей
    Соотношение сторон : 16: 9
    Режим частоты кадров : Постоянный
    Частота кадров : 23, 976 (23976/1000) кадра/сек
    Цветовое пространство : YUV
    Субдискретизация насыщенности : 4: 2: 0
    Битовая глубина : 8 бит
    Тип развёртки : Прогрессивная
    Бит/(Пиксели*Кадры) : 0.270
    Размер потока : 25, 9 Мбайт (93%)
    Язык : English
    Дата кодирования : UTC 2011-09-23 23: 39: 04
    Дата пометки : UTC 2011-09-23 23: 39: 05
    Цветовой диапазон : Limited
    Основные цвета : BT.601 NTSC
    Характеристики трансфера : BT.709
    Коэффициенты матрицы : BT.601
    Аудио
    Идентификатор : 2
    Формат : AAC
    Формат/Информация : Advanced Audio Codec
    Профиль формата : LC
    Идентификатор кодека : mp4a-40-2
    Продолжительность : 2 м. 25 с.
    Продолжительность оригинала : 2 м. 25 с.
    Вид битрейта : Постоянный
    Битрейт : 109 Кбит/сек
    Номинальный битрейт : 128 Кбит/сек
    Каналы : 2 канала
    Расположение каналов : Front: L R
    Частота : 44, 1 КГц
    Частота кадров : 43, 066 кадра/сек (1024 SPF)
    Метод сжатия : С потерями
    Размер потока : 1, 90 Мбайт (7%)
    Размер потока оригинала : 1, 90 Мбайт (7%)
    Язык : English
    Дата кодирования : UTC 2011-09-23 23: 39: 04
    Дата пометки : UTC 2011-09-23 23: 39: 05
    Скриншоты:


    Время раздачи: Круглосуточно (до появления первых 3-5 скачавших)


    TRX TV | Endurance (2011) WEB-DLRip [H.264][EN]
    Рейтинг →
     (голосов: 1, оценка 5/5, голосовать можно 1 раз )

    Другие торренты по теме:

  • Georges St. Pierre | Rushfit Strength & Endurance Workout (2011) DVDRip [EN]
  • VA - Concentrate On Endurance And Strength! (2017) [MP3|320 Kbps] <Progressive House>
  • TRX TV | TRX - Endurance (2011) DVDRip [H.264] [EN]
  • Endurance Antivirus 4.1.4 [En]
  • VirusKiller Antivirus (ранее Endurance Antivirus) 4.1.6 [En]
  • Endurance 1.1 [En]
  • Endurance Antivirus 4.1.5 [En]


    • Комментарии (0):

      Информация

      Информация

        Посетители, находящиеся в группе Гости, не могут оставлять комментарии в данной новости.

        ↓ Меню




        ↓ Опрос

        Вы добавили сайт в закладки?
        Да
        Нет


        Top 10 за месяц (Книги)