.
Авторизация | Регистрация
Хочешь лучшие торренты? Добавь свой email!
Добавить

Торрент скачать бесплатно

» » Нетология | Основы маркетинга в социальных сетях (SMM) (2017) PCRec торрент скачать бесплатно


    Нетология | Основы маркетинга в социальных сетях (SMM) (2017) PCRec торрент скачать бесплатно

    Опубликовал: Админ | Дата: 1-04-2018, 05:01 | .torrent скачали: 3

    Нетология | Основы маркетинга в социальных сетях (SMM) (2017) PCRecАвтор (режиссер): Нетология
    Производство: Нетология
    Жанр: Маркетинг

    Описание

    Курс от Нетологии по продвижение бизнеса и услуг в социальных сетях
    Продолжительность: 02: 27: 38
    Качество видео: PCRec
    Видео: AVC/H.264, 1280x720, ~1372 Kbps
    Аудио: AAC, 2 ch, 147

    Общее
    Полное имя : I: БизнесМаркетинг и рекламаНетология - Основы маркетинга в социальных сетях (SMM)Курс Основы маркетинга в социальных сетях (SMM)_Выбор инструмента для коммуникации в социальных медиа.mp4
    Формат : MPEG-4
    Профиль формата : Base Media/Version 2
    Идентификатор кодека : mp42 (mp42/mp41/isom/avc1)
    Размер файла : 103 Мбайт
    Продолжительность : 9 м. 29 с.
    Режим общего битрейта : Переменный
    Общий поток : 1524 Кбит/сек
    Дата кодирования : UTC 2013-11-28 21: 30: 57
    Дата пометки : UTC 2013-11-28 21: 30: 57
    Видео
    Идентификатор : 1
    Формат : AVC
    Формат/Информация : Advanced Video Codec
    Профиль формата : Main@L3.1
    Настройки формата : CABAC/4 Ref Frames
    Параметр CABAC формата : Да
    Параметр RefFrames формата : 4 кадра
    Идентификатор кодека : avc1
    Идентификатор кодека/Информация : Advanced Video Coding
    Продолжительность : 9 м. 29 с.
    Битрейт : 1372 Кбит/сек
    Ширина : 1280 пикселей
    Высота : 720 пикселей
    Соотношение сторон : 16: 9
    Режим частоты кадров : Постоянный
    Частота кадров : 29, 970 (30000/1001) кадров/сек
    Цветовое пространство : YUV
    Субдискретизация насыщенности : 4: 2: 0
    Битовая глубина : 8 бит
    Тип развёртки : Прогрессивная
    Бит/(Пиксели*Кадры) : 0.050
    Размер потока : 93, 2 Мбайт (90%)
    Библиотека кодирования : x264 core 138 r2358 9e941d1
    Настройки программы : cabac=1/ref=1/deblock=1: 0: 0/analyse=0x1: 0/me=dia/subme=2/psy=1/psy_rd=1.00: 0.00/mixed_ref=0/me_range=16/chroma_me=1/trellis=0/8x8dct=0/cqm=0/deadzone=21, 11/fast_pskip=1/chroma_qp_offset=0/threads=12/lookahead_threads=4/sliced_threads=0/nr=0/decimate=1/interlaced=0/bluray_compat=0/stitchable=1/constrained_intra=0/bframes=3/b_pyramid=2/b_adapt=1/b_bias=0/direct=1/weightb=1/open_gop=0/weightp=2/keyint=90/keyint_min=30/scenecut=40/intra_refresh=0/rc_lookahead=40/rc=crf/mbtree=1/crf=20.0/qcomp=0.60/qpmin=5/qpmax=69/qpstep=4/vbv_maxrate=3750/vbv_bufsize=12500/crf_max=0.0/nal_hrd=none/ip_ratio=1.40/aq=1: 1.00
    Дата кодирования : UTC 2013-11-28 21: 30: 57
    Дата пометки : UTC 2013-11-28 21: 30: 57
    Аудио
    Идентификатор : 2
    Формат : AAC
    Формат/Информация : Advanced Audio Codec
    Профиль формата : LC
    Идентификатор кодека : mp4a-40-2
    Продолжительность : 9 м. 29 с.
    Вид битрейта : Переменный
    Битрейт : 147 Кбит/сек
    Каналы : 2 канала
    Расположение каналов : Front: L R
    Частота : 48, 0 КГц
    Частота кадров : 46, 875 кадров/сек (1024 SPF)
    Метод сжатия : С потерями
    Размер потока : 9, 98 Мбайт (10%)
    Дата кодирования : UTC 2013-11-28 21: 30: 57
    Дата пометки : UTC 2013-11-28 21: 30: 57
    Общее
    Полное имя : I: БизнесМаркетинг и рекламаНетология - Основы маркетинга в социальных сетях (SMM)Курс Основы маркетинга в социальных сетях (SMM)_Мониторинг и системы реагирования.mp4
    Формат : MPEG-4
    Профиль формата : Base Media/Version 2
    Идентификатор кодека : mp42 (mp42/mp41/isom/avc1)
    Размер файла : 89, 9 Мбайт
    Продолжительность : 7 м. 32 с.
    Режим общего битрейта : Переменный
    Общий поток : 1669 Кбит/сек
    Дата кодирования : UTC 2013-11-28 20: 37: 33
    Дата пометки : UTC 2013-11-28 20: 37: 33
    Видео
    Идентификатор : 1
    Формат : AVC
    Формат/Информация : Advanced Video Codec
    Профиль формата : Main@L3.1
    Настройки формата : CABAC/4 Ref Frames
    Параметр CABAC формата : Да
    Параметр RefFrames формата : 4 кадра
    Идентификатор кодека : avc1
    Идентификатор кодека/Информация : Advanced Video Coding
    Продолжительность : 7 м. 31 с.
    Битрейт : 1517 Кбит/сек
    Ширина : 1280 пикселей
    Высота : 720 пикселей
    Соотношение сторон : 16: 9
    Режим частоты кадров : Постоянный
    Частота кадров : 29, 970 (30000/1001) кадров/сек
    Цветовое пространство : YUV
    Субдискретизация насыщенности : 4: 2: 0
    Битовая глубина : 8 бит
    Тип развёртки : Прогрессивная
    Бит/(Пиксели*Кадры) : 0.055
    Размер потока : 81, 8 Мбайт (91%)
    Библиотека кодирования : x264 core 138 r2358 9e941d1
    Настройки программы : cabac=1/ref=1/deblock=1: 0: 0/analyse=0x1: 0/me=dia/subme=2/psy=1/psy_rd=1.00: 0.00/mixed_ref=0/me_range=16/chroma_me=1/trellis=0/8x8dct=0/cqm=0/deadzone=21, 11/fast_pskip=1/chroma_qp_offset=0/threads=12/lookahead_threads=4/sliced_threads=0/nr=0/decimate=1/interlaced=0/bluray_compat=0/stitchable=1/constrained_intra=0/bframes=3/b_pyramid=2/b_adapt=1/b_bias=0/direct=1/weightb=1/open_gop=0/weightp=2/keyint=90/keyint_min=30/scenecut=40/intra_refresh=0/rc_lookahead=40/rc=crf/mbtree=1/crf=20.0/qcomp=0.60/qpmin=5/qpmax=69/qpstep=4/vbv_maxrate=3750/vbv_bufsize=12500/crf_max=0.0/nal_hrd=none/ip_ratio=1.40/aq=1: 1.00
    Дата кодирования : UTC 2013-11-28 20: 37: 33
    Дата пометки : UTC 2013-11-28 20: 37: 33
    Аудио
    Идентификатор : 2
    Формат : AAC
    Формат/Информация : Advanced Audio Codec
    Профиль формата : LC
    Идентификатор кодека : mp4a-40-2
    Продолжительность : 7 м. 32 с.
    Вид битрейта : Переменный
    Битрейт : 147 Кбит/сек
    Каналы : 2 канала
    Расположение каналов : Front: L R
    Частота : 48, 0 КГц
    Частота кадров : 46, 875 кадров/сек (1024 SPF)
    Метод сжатия : С потерями
    Размер потока : 7, 92 Мбайт (9%)
    Дата кодирования : UTC 2013-11-28 20: 37: 33
    Дата пометки : UTC 2013-11-28 20: 37: 33
    Общее
    Полное имя : I: БизнесМаркетинг и рекламаНетология - Основы маркетинга в социальных сетях (SMM)Курс Основы маркетинга в социальных сетях (SMM)_Обзор основных российских социальных сетей.mp4
    Формат : MPEG-4
    Профиль формата : Base Media/Version 2
    Идентификатор кодека : mp42 (mp42/mp41/isom/avc1)
    Размер файла : 241 Мбайт
    Продолжительность : 17 м. 16 с.
    Режим общего битрейта : Переменный
    Общий поток : 1948 Кбит/сек
    Дата кодирования : UTC 2013-11-28 22: 03: 25
    Дата пометки : UTC 2013-11-28 22: 03: 25
    Видео
    Идентификатор : 1
    Формат : AVC
    Формат/Информация : Advanced Video Codec
    Профиль формата : Main@L3.1
    Настройки формата : CABAC/4 Ref Frames
    Параметр CABAC формата : Да
    Параметр RefFrames формата : 4 кадра
    Идентификатор кодека : avc1
    Идентификатор кодека/Информация : Advanced Video Coding
    Продолжительность : 17 м. 16 с.
    Битрейт : 1797 Кбит/сек
    Ширина : 1280 пикселей
    Высота : 720 пикселей
    Соотношение сторон : 16: 9
    Режим частоты кадров : Постоянный
    Частота кадров : 29, 970 (30000/1001) кадров/сек
    Цветовое пространство : YUV
    Субдискретизация насыщенности : 4: 2: 0
    Битовая глубина : 8 бит
    Тип развёртки : Прогрессивная
    Бит/(Пиксели*Кадры) : 0.065
    Размер потока : 222 Мбайт (92%)
    Библиотека кодирования : x264 core 138 r2358 9e941d1
    Настройки программы : cabac=1/ref=1/deblock=1: 0: 0/analyse=0x1: 0/me=dia/subme=2/psy=1/psy_rd=1.00: 0.00/mixed_ref=0/me_range=16/chroma_me=1/trellis=0/8x8dct=0/cqm=0/deadzone=21, 11/fast_pskip=1/chroma_qp_offset=0/threads=12/lookahead_threads=4/sliced_threads=0/nr=0/decimate=1/interlaced=0/bluray_compat=0/stitchable=1/constrained_intra=0/bframes=3/b_pyramid=2/b_adapt=1/b_bias=0/direct=1/weightb=1/open_gop=0/weightp=2/keyint=90/keyint_min=30/scenecut=40/intra_refresh=0/rc_lookahead=40/rc=crf/mbtree=1/crf=20.0/qcomp=0.60/qpmin=5/qpmax=69/qpstep=4/vbv_maxrate=3750/vbv_bufsize=12500/crf_max=0.0/nal_hrd=none/ip_ratio=1.40/aq=1: 1.00
    Дата кодирования : UTC 2013-11-28 22: 03: 25
    Дата пометки : UTC 2013-11-28 22: 03: 25
    Аудио
    Идентификатор : 2
    Формат : AAC
    Формат/Информация : Advanced Audio Codec
    Профиль формата : LC
    Идентификатор кодека : mp4a-40-2
    Продолжительность : 17 м. 16 с.
    Вид битрейта : Переменный
    Битрейт : 147 Кбит/сек
    Каналы : 2 канала
    Расположение каналов : Front: L R
    Частота : 48, 0 КГц
    Частота кадров : 46, 875 кадров/сек (1024 SPF)
    Метод сжатия : С потерями
    Размер потока : 18, 2 Мбайт (8%)
    Дата кодирования : UTC 2013-11-28 22: 03: 25
    Дата пометки : UTC 2013-11-28 22: 03: 25
    Общее
    Полное имя : I: БизнесМаркетинг и рекламаНетология - Основы маркетинга в социальных сетях (SMM)Курс Основы маркетинга в социальных сетях (SMM)_Особенности социальных сетей.mp4
    Формат : MPEG-4
    Профиль формата : Base Media/Version 2
    Идентификатор кодека : mp42 (mp42/mp41/isom/avc1)
    Размер файла : 120 Мбайт
    Продолжительность : 9 м. 1 с.
    Режим общего битрейта : Переменный
    Общий поток : 1862 Кбит/сек
    Дата кодирования : UTC 2013-11-28 22: 04: 32
    Дата пометки : UTC 2013-11-28 22: 04: 32
    Видео
    Идентификатор : 1
    Формат : AVC
    Формат/Информация : Advanced Video Codec
    Профиль формата : Main@L3.1
    Настройки формата : CABAC/4 Ref Frames
    Параметр CABAC формата : Да
    Параметр RefFrames формата : 4 кадра
    Идентификатор кодека : avc1
    Идентификатор кодека/Информация : Advanced Video Coding
    Продолжительность : 9 м. 1 с.
    Битрейт : 1710 Кбит/сек
    Ширина : 1280 пикселей
    Высота : 720 пикселей
    Соотношение сторон : 16: 9
    Режим частоты кадров : Постоянный
    Частота кадров : 29, 970 (30000/1001) кадров/сек
    Цветовое пространство : YUV
    Субдискретизация насыщенности : 4: 2: 0
    Битовая глубина : 8 бит
    Тип развёртки : Прогрессивная
    Бит/(Пиксели*Кадры) : 0.062
    Размер потока : 110 Мбайт (92%)
    Библиотека кодирования : x264 core 138 r2358 9e941d1
    Настройки программы : cabac=1/ref=1/deblock=1: 0: 0/analyse=0x1: 0/me=dia/subme=2/psy=1/psy_rd=1.00: 0.00/mixed_ref=0/me_range=16/chroma_me=1/trellis=0/8x8dct=0/cqm=0/deadzone=21, 11/fast_pskip=1/chroma_qp_offset=0/threads=12/lookahead_threads=4/sliced_threads=0/nr=0/decimate=1/interlaced=0/bluray_compat=0/stitchable=1/constrained_intra=0/bframes=3/b_pyramid=2/b_adapt=1/b_bias=0/direct=1/weightb=1/open_gop=0/weightp=2/keyint=90/keyint_min=30/scenecut=40/intra_refresh=0/rc_lookahead=40/rc=crf/mbtree=1/crf=20.0/qcomp=0.60/qpmin=5/qpmax=69/qpstep=4/vbv_maxrate=3750/vbv_bufsize=12500/crf_max=0.0/nal_hrd=none/ip_ratio=1.40/aq=1: 1.00
    Дата кодирования : UTC 2013-11-28 22: 04: 32
    Дата пометки : UTC 2013-11-28 22: 04: 32
    Аудио
    Идентификатор : 2
    Формат : AAC
    Формат/Информация : Advanced Audio Codec
    Профиль формата : LC
    Идентификатор кодека : mp4a-40-2
    Продолжительность : 9 м. 1 с.
    Вид битрейта : Переменный
    Битрейт : 147 Кбит/сек
    Каналы : 2 канала
    Расположение каналов : Front: L R
    Частота : 48, 0 КГц
    Частота кадров : 46, 875 кадров/сек (1024 SPF)
    Метод сжатия : С потерями
    Размер потока : 9, 49 Мбайт (8%)
    Дата кодирования : UTC 2013-11-28 22: 04: 32
    Дата пометки : UTC 2013-11-28 22: 04: 32
    Общее
    Полное имя : I: БизнесМаркетинг и рекламаНетология - Основы маркетинга в социальных сетях (SMM)Курс Основы маркетинга в социальных сетях (SMM)_План выхода в социальные сети.mp4
    Формат : MPEG-4
    Профиль формата : Base Media/Version 2
    Идентификатор кодека : mp42 (mp42/mp41/isom/avc1)
    Размер файла : 60, 0 Мбайт
    Продолжительность : 5 м. 27 с.
    Режим общего битрейта : Переменный
    Общий поток : 1536 Кбит/сек
    Дата кодирования : UTC 2013-11-28 22: 23: 38
    Дата пометки : UTC 2013-11-28 22: 23: 38
    Видео
    Идентификатор : 1
    Формат : AVC
    Формат/Информация : Advanced Video Codec
    Профиль формата : Main@L3.1
    Настройки формата : CABAC/4 Ref Frames
    Параметр CABAC формата : Да
    Параметр RefFrames формата : 4 кадра
    Идентификатор кодека : avc1
    Идентификатор кодека/Информация : Advanced Video Coding
    Продолжительность : 5 м. 27 с.
    Битрейт : 1384 Кбит/сек
    Ширина : 1280 пикселей
    Высота : 720 пикселей
    Соотношение сторон : 16: 9
    Режим частоты кадров : Постоянный
    Частота кадров : 29, 970 (30000/1001) кадров/сек
    Цветовое пространство : YUV
    Субдискретизация насыщенности : 4: 2: 0
    Битовая глубина : 8 бит
    Тип развёртки : Прогрессивная
    Бит/(Пиксели*Кадры) : 0.050
    Размер потока : 54, 1 Мбайт (90%)
    Библиотека кодирования : x264 core 138 r2358 9e941d1
    Настройки программы : cabac=1/ref=1/deblock=1: 0: 0/analyse=0x1: 0/me=dia/subme=2/psy=1/psy_rd=1.00: 0.00/mixed_ref=0/me_range=16/chroma_me=1/trellis=0/8x8dct=0/cqm=0/deadzone=21, 11/fast_pskip=1/chroma_qp_offset=0/threads=12/lookahead_threads=4/sliced_threads=0/nr=0/decimate=1/interlaced=0/bluray_compat=0/stitchable=1/constrained_intra=0/bframes=3/b_pyramid=2/b_adapt=1/b_bias=0/direct=1/weightb=1/open_gop=0/weightp=2/keyint=90/keyint_min=30/scenecut=40/intra_refresh=0/rc_lookahead=40/rc=crf/mbtree=1/crf=20.0/qcomp=0.60/qpmin=5/qpmax=69/qpstep=4/vbv_maxrate=3750/vbv_bufsize=12500/crf_max=0.0/nal_hrd=none/ip_ratio=1.40/aq=1: 1.00
    Дата кодирования : UTC 2013-11-28 22: 23: 38
    Дата пометки : UTC 2013-11-28 22: 23: 38
    Аудио
    Идентификатор : 2
    Формат : AAC
    Формат/Информация : Advanced Audio Codec
    Профиль формата : LC
    Идентификатор кодека : mp4a-40-2
    Продолжительность : 5 м. 27 с.
    Вид битрейта : Переменный
    Битрейт : 147 Кбит/сек
    Каналы : 2 канала
    Расположение каналов : Front: L R
    Частота : 48, 0 КГц
    Частота кадров : 46, 875 кадров/сек (1024 SPF)
    Метод сжатия : С потерями
    Размер потока : 5, 75 Мбайт (10%)
    Дата кодирования : UTC 2013-11-28 22: 23: 38
    Дата пометки : UTC 2013-11-28 22: 23: 38
    Общее
    Полное имя : I: БизнесМаркетинг и рекламаНетология - Основы маркетинга в социальных сетях (SMM)Курс Основы маркетинга в социальных сетях (SMM)_Планирование коммуникаций.mp4
    Формат : MPEG-4
    Профиль формата : Base Media/Version 2
    Идентификатор кодека : mp42 (mp42/mp41/isom/avc1)
    Размер файла : 94, 0 Мбайт
    Продолжительность : 8 м. 21 с.
    Режим общего битрейта : Переменный
    Общий поток : 1573 Кбит/сек
    Дата кодирования : UTC 2013-11-28 21: 38: 23
    Дата пометки : UTC 2013-11-28 21: 38: 23
    Видео
    Идентификатор : 1
    Формат : AVC
    Формат/Информация : Advanced Video Codec
    Профиль формата : Main@L3.1
    Настройки формата : CABAC/4 Ref Frames
    Параметр CABAC формата : Да
    Параметр RefFrames формата : 4 кадра
    Идентификатор кодека : avc1
    Идентификатор кодека/Информация : Advanced Video Coding
    Продолжительность : 8 м. 21 с.
    Битрейт : 1421 Кбит/сек
    Ширина : 1280 пикселей
    Высота : 720 пикселей
    Соотношение сторон : 16: 9
    Режим частоты кадров : Постоянный
    Частота кадров : 29, 970 (30000/1001) кадров/сек
    Цветовое пространство : YUV
    Субдискретизация насыщенности : 4: 2: 0
    Битовая глубина : 8 бит
    Тип развёртки : Прогрессивная
    Бит/(Пиксели*Кадры) : 0.051
    Размер потока : 84, 9 Мбайт (90%)
    Библиотека кодирования : x264 core 138 r2358 9e941d1
    Настройки программы : cabac=1/ref=1/deblock=1: 0: 0/analyse=0x1: 0/me=dia/subme=2/psy=1/psy_rd=1.00: 0.00/mixed_ref=0/me_range=16/chroma_me=1/trellis=0/8x8dct=0/cqm=0/deadzone=21, 11/fast_pskip=1/chroma_qp_offset=0/threads=12/lookahead_threads=4/sliced_threads=0/nr=0/decimate=1/interlaced=0/bluray_compat=0/stitchable=1/constrained_intra=0/bframes=3/b_pyramid=2/b_adapt=1/b_bias=0/direct=1/weightb=1/open_gop=0/weightp=2/keyint=90/keyint_min=30/scenecut=40/intra_refresh=0/rc_lookahead=40/rc=crf/mbtree=1/crf=20.0/qcomp=0.60/qpmin=5/qpmax=69/qpstep=4/vbv_maxrate=3750/vbv_bufsize=12500/crf_max=0.0/nal_hrd=none/ip_ratio=1.40/aq=1: 1.00
    Дата кодирования : UTC 2013-11-28 21: 38: 23
    Дата пометки : UTC 2013-11-28 21: 38: 23
    Аудио
    Идентификатор : 2
    Формат : AAC
    Формат/Информация : Advanced Audio Codec
    Профиль формата : LC
    Идентификатор кодека : mp4a-40-2
    Продолжительность : 8 м. 21 с.
    Вид битрейта : Переменный
    Битрейт : 147 Кбит/сек
    Каналы : 2 канала
    Расположение каналов : Front: L R
    Частота : 48, 0 КГц
    Частота кадров : 46, 875 кадров/сек (1024 SPF)
    Метод сжатия : С потерями
    Размер потока : 8, 78 Мбайт (9%)
    Дата кодирования : UTC 2013-11-28 21: 38: 23
    Дата пометки : UTC 2013-11-28 21: 38: 23
    Общее
    Полное имя : I: БизнесМаркетинг и рекламаНетология - Основы маркетинга в социальных сетях (SMM)Курс Основы маркетинга в социальных сетях (SMM)_Развитие сообщества.mp4
    Формат : MPEG-4
    Профиль формата : Base Media/Version 2
    Идентификатор кодека : mp42 (mp42/mp41/isom/avc1)
    Размер файла : 232 Мбайт
    Продолжительность : 19 м. 19 с.
    Режим общего битрейта : Переменный
    Общий поток : 1679 Кбит/сек
    Дата кодирования : UTC 2013-11-28 21: 07: 27
    Дата пометки : UTC 2013-11-28 21: 07: 27
    Видео
    Идентификатор : 1
    Формат : AVC
    Формат/Информация : Advanced Video Codec
    Профиль формата : Main@L3.1
    Настройки формата : CABAC/4 Ref Frames
    Параметр CABAC формата : Да
    Параметр RefFrames формата : 4 кадра
    Идентификатор кодека : avc1
    Идентификатор кодека/Информация : Advanced Video Coding
    Продолжительность : 19 м. 19 с.
    Битрейт : 1527 Кбит/сек
    Ширина : 1280 пикселей
    Высота : 720 пикселей
    Соотношение сторон : 16: 9
    Режим частоты кадров : Постоянный
    Частота кадров : 29, 970 (30000/1001) кадров/сек
    Цветовое пространство : YUV
    Субдискретизация насыщенности : 4: 2: 0
    Битовая глубина : 8 бит
    Тип развёртки : Прогрессивная
    Бит/(Пиксели*Кадры) : 0.055
    Размер потока : 211 Мбайт (91%)
    Библиотека кодирования : x264 core 138 r2358 9e941d1
    Настройки программы : cabac=1/ref=1/deblock=1: 0: 0/analyse=0x1: 0/me=dia/subme=2/psy=1/psy_rd=1.00: 0.00/mixed_ref=0/me_range=16/chroma_me=1/trellis=0/8x8dct=0/cqm=0/deadzone=21, 11/fast_pskip=1/chroma_qp_offset=0/threads=12/lookahead_threads=4/sliced_threads=0/nr=0/decimate=1/interlaced=0/bluray_compat=0/stitchable=1/constrained_intra=0/bframes=3/b_pyramid=2/b_adapt=1/b_bias=0/direct=1/weightb=1/open_gop=0/weightp=2/keyint=90/keyint_min=30/scenecut=40/intra_refresh=0/rc_lookahead=40/rc=crf/mbtree=1/crf=20.0/qcomp=0.60/qpmin=5/qpmax=69/qpstep=4/vbv_maxrate=3750/vbv_bufsize=12500/crf_max=0.0/nal_hrd=none/ip_ratio=1.40/aq=1: 1.00
    Дата кодирования : UTC 2013-11-28 21: 07: 27
    Дата пометки : UTC 2013-11-28 21: 07: 27
    Аудио
    Идентификатор : 2
    Формат : AAC
    Формат/Информация : Advanced Audio Codec
    Профиль формата : LC
    Идентификатор кодека : mp4a-40-2
    Продолжительность : 19 м. 19 с.
    Вид битрейта : Переменный
    Битрейт : 147 Кбит/сек
    Каналы : 2 канала
    Расположение каналов : Front: L R
    Частота : 48, 0 КГц
    Частота кадров : 46, 875 кадров/сек (1024 SPF)
    Метод сжатия : С потерями
    Размер потока : 20, 3 Мбайт (9%)
    Дата кодирования : UTC 2013-11-28 21: 07: 27
    Дата пометки : UTC 2013-11-28 21: 07: 27
    Общее
    Полное имя : I: БизнесМаркетинг и рекламаНетология - Основы маркетинга в социальных сетях (SMM)Курс Основы маркетинга в социальных сетях (SMM)_Разработка контент-плана.mp4
    Формат : MPEG-4
    Профиль формата : Base Media/Version 2
    Идентификатор кодека : mp42 (mp42/mp41/isom/avc1)
    Размер файла : 175 Мбайт
    Продолжительность : 14 м. 32 с.
    Режим общего битрейта : Переменный
    Общий поток : 1684 Кбит/сек
    Дата кодирования : UTC 2013-11-28 21: 12: 17
    Дата пометки : UTC 2013-11-28 21: 12: 17
    Видео
    Идентификатор : 1
    Формат : AVC
    Формат/Информация : Advanced Video Codec
    Профиль формата : Main@L3.1
    Настройки формата : CABAC/4 Ref Frames
    Параметр CABAC формата : Да
    Параметр RefFrames формата : 4 кадра
    Идентификатор кодека : avc1
    Идентификатор кодека/Информация : Advanced Video Coding
    Продолжительность : 14 м. 32 с.
    Битрейт : 1532 Кбит/сек
    Ширина : 1280 пикселей
    Высота : 720 пикселей
    Соотношение сторон : 16: 9
    Режим частоты кадров : Постоянный
    Частота кадров : 29, 970 (30000/1001) кадров/сек
    Цветовое пространство : YUV
    Субдискретизация насыщенности : 4: 2: 0
    Битовая глубина : 8 бит
    Тип развёртки : Прогрессивная
    Бит/(Пиксели*Кадры) : 0.055
    Размер потока : 159 Мбайт (91%)
    Библиотека кодирования : x264 core 138 r2358 9e941d1
    Настройки программы : cabac=1/ref=1/deblock=1: 0: 0/analyse=0x1: 0/me=dia/subme=2/psy=1/psy_rd=1.00: 0.00/mixed_ref=0/me_range=16/chroma_me=1/trellis=0/8x8dct=0/cqm=0/deadzone=21, 11/fast_pskip=1/chroma_qp_offset=0/threads=12/lookahead_threads=4/sliced_threads=0/nr=0/decimate=1/interlaced=0/bluray_compat=0/stitchable=1/constrained_intra=0/bframes=3/b_pyramid=2/b_adapt=1/b_bias=0/direct=1/weightb=1/open_gop=0/weightp=2/keyint=90/keyint_min=30/scenecut=40/intra_refresh=0/rc_lookahead=40/rc=crf/mbtree=1/crf=20.0/qcomp=0.60/qpmin=5/qpmax=69/qpstep=4/vbv_maxrate=3750/vbv_bufsize=12500/crf_max=0.0/nal_hrd=none/ip_ratio=1.40/aq=1: 1.00
    Дата кодирования : UTC 2013-11-28 21: 12: 17
    Дата пометки : UTC 2013-11-28 21: 12: 17
    Аудио
    Идентификатор : 2
    Формат : AAC
    Формат/Информация : Advanced Audio Codec
    Профиль формата : LC
    Идентификатор кодека : mp4a-40-2
    Продолжительность : 14 м. 32 с.
    Вид битрейта : Переменный
    Битрейт : 147 Кбит/сек
    Каналы : 2 канала
    Расположение каналов : Front: L R
    Частота : 48, 0 КГц
    Частота кадров : 46, 875 кадров/сек (1024 SPF)
    Метод сжатия : С потерями
    Размер потока : 15, 3 Мбайт (9%)
    Дата кодирования : UTC 2013-11-28 21: 12: 17
    Дата пометки : UTC 2013-11-28 21: 12: 17
    Общее
    Полное имя : I: БизнесМаркетинг и рекламаНетология - Основы маркетинга в социальных сетях (SMM)Курс Основы маркетинга в социальных сетях (SMM)_Создание сообщества и контента для социальных сетей.mp4
    Формат : MPEG-4
    Профиль формата : Base Media/Version 2
    Идентификатор кодека : mp42 (mp42/mp41/isom/avc1)
    Размер файла : 192 Мбайт
    Продолжительность : 17 м. 23 с.
    Режим общего битрейта : Переменный
    Общий поток : 1544 Кбит/сек
    Дата кодирования : UTC 2013-11-28 21: 17: 12
    Дата пометки : UTC 2013-11-28 21: 17: 12
    Видео
    Идентификатор : 1
    Формат : AVC
    Формат/Информация : Advanced Video Codec
    Профиль формата : Main@L3.1
    Настройки формата : CABAC/4 Ref Frames
    Параметр CABAC формата : Да
    Параметр RefFrames формата : 4 кадра
    Идентификатор кодека : avc1
    Идентификатор кодека/Информация : Advanced Video Coding
    Продолжительность : 17 м. 23 с.
    Битрейт : 1392 Кбит/сек
    Ширина : 1280 пикселей
    Высота : 720 пикселей
    Соотношение сторон : 16: 9
    Режим частоты кадров : Постоянный
    Частота кадров : 29, 970 (30000/1001) кадров/сек
    Цветовое пространство : YUV
    Субдискретизация насыщенности : 4: 2: 0
    Битовая глубина : 8 бит
    Тип развёртки : Прогрессивная
    Бит/(Пиксели*Кадры) : 0.050
    Размер потока : 173 Мбайт (90%)
    Библиотека кодирования : x264 core 138 r2358 9e941d1
    Настройки программы : cabac=1/ref=1/deblock=1: 0: 0/analyse=0x1: 0/me=dia/subme=2/psy=1/psy_rd=1.00: 0.00/mixed_ref=0/me_range=16/chroma_me=1/trellis=0/8x8dct=0/cqm=0/deadzone=21, 11/fast_pskip=1/chroma_qp_offset=0/threads=12/lookahead_threads=4/sliced_threads=0/nr=0/decimate=1/interlaced=0/bluray_compat=0/stitchable=1/constrained_intra=0/bframes=3/b_pyramid=2/b_adapt=1/b_bias=0/direct=1/weightb=1/open_gop=0/weightp=2/keyint=90/keyint_min=30/scenecut=40/intra_refresh=0/rc_lookahead=40/rc=crf/mbtree=1/crf=20.0/qcomp=0.60/qpmin=5/qpmax=69/qpstep=4/vbv_maxrate=3750/vbv_bufsize=12500/crf_max=0.0/nal_hrd=none/ip_ratio=1.40/aq=1: 1.00
    Дата кодирования : UTC 2013-11-28 21: 17: 12
    Дата пометки : UTC 2013-11-28 21: 17: 12
    Аудио
    Идентификатор : 2
    Формат : AAC
    Формат/Информация : Advanced Audio Codec
    Профиль формата : LC
    Идентификатор кодека : mp4a-40-2
    Продолжительность : 17 м. 23 с.
    Вид битрейта : Переменный
    Битрейт : 147 Кбит/сек
    Каналы : 2 канала
    Расположение каналов : Front: L R
    Частота : 48, 0 КГц
    Частота кадров : 46, 875 кадров/сек (1024 SPF)
    Метод сжатия : С потерями
    Размер потока : 18, 3 Мбайт (10%)
    Дата кодирования : UTC 2013-11-28 21: 17: 12
    Дата пометки : UTC 2013-11-28 21: 17: 12
    Общее
    Полное имя : I: БизнесМаркетинг и рекламаНетология - Основы маркетинга в социальных сетях (SMM)Курс Основы маркетинга в социальных сетях (SMM)_Структура канала социальных медиа.mp4
    Формат : MPEG-4
    Профиль формата : Base Media/Version 2
    Идентификатор кодека : mp42 (mp42/mp41/isom/avc1)
    Размер файла : 81, 1 Мбайт
    Продолжительность : 7 м. 1 с.
    Режим общего битрейта : Переменный
    Общий поток : 1616 Кбит/сек
    Дата кодирования : UTC 2013-11-28 21: 40: 44
    Дата пометки : UTC 2013-11-28 21: 40: 44
    Видео
    Идентификатор : 1
    Формат : AVC
    Формат/Информация : Advanced Video Codec
    Профиль формата : Main@L3.1
    Настройки формата : CABAC/4 Ref Frames
    Параметр CABAC формата : Да
    Параметр RefFrames формата : 4 кадра
    Идентификатор кодека : avc1
    Идентификатор кодека/Информация : Advanced Video Coding
    Продолжительность : 7 м. 1 с.
    Битрейт : 1464 Кбит/сек
    Ширина : 1280 пикселей
    Высота : 720 пикселей
    Соотношение сторон : 16: 9
    Режим частоты кадров : Постоянный
    Частота кадров : 29, 970 (30000/1001) кадров/сек
    Цветовое пространство : YUV
    Субдискретизация насыщенности : 4: 2: 0
    Битовая глубина : 8 бит
    Тип развёртки : Прогрессивная
    Бит/(Пиксели*Кадры) : 0.053
    Размер потока : 73, 5 Мбайт (91%)
    Библиотека кодирования : x264 core 138 r2358 9e941d1
    Настройки программы : cabac=1/ref=1/deblock=1: 0: 0/analyse=0x1: 0/me=dia/subme=2/psy=1/psy_rd=1.00: 0.00/mixed_ref=0/me_range=16/chroma_me=1/trellis=0/8x8dct=0/cqm=0/deadzone=21, 11/fast_pskip=1/chroma_qp_offset=0/threads=12/lookahead_threads=4/sliced_threads=0/nr=0/decimate=1/interlaced=0/bluray_compat=0/stitchable=1/constrained_intra=0/bframes=3/b_pyramid=2/b_adapt=1/b_bias=0/direct=1/weightb=1/open_gop=0/weightp=2/keyint=90/keyint_min=30/scenecut=40/intra_refresh=0/rc_lookahead=40/rc=crf/mbtree=1/crf=20.0/qcomp=0.60/qpmin=5/qpmax=69/qpstep=4/vbv_maxrate=3750/vbv_bufsize=12500/crf_max=0.0/nal_hrd=none/ip_ratio=1.40/aq=1: 1.00
    Дата кодирования : UTC 2013-11-28 21: 40: 44
    Дата пометки : UTC 2013-11-28 21: 40: 44
    Аудио
    Идентификатор : 2
    Формат : AAC
    Формат/Информация : Advanced Audio Codec
    Профиль формата : LC
    Идентификатор кодека : mp4a-40-2
    Продолжительность : 7 м. 1 с.
    Вид битрейта : Переменный
    Битрейт : 147 Кбит/сек
    Каналы : 2 канала
    Расположение каналов : Front: L R
    Частота : 48, 0 КГц
    Частота кадров : 46, 875 кадров/сек (1024 SPF)
    Метод сжатия : С потерями
    Размер потока : 7, 38 Мбайт (9%)
    Дата кодирования : UTC 2013-11-28 21: 40: 44
    Дата пометки : UTC 2013-11-28 21: 40: 44
    Общее
    Полное имя : I: БизнесМаркетинг и рекламаНетология - Основы маркетинга в социальных сетях (SMM)Курс Основы маркетинга в социальных сетях (SMM)_Структура социальных медиа.mp4
    Формат : MPEG-4
    Профиль формата : Base Media/Version 2
    Идентификатор кодека : mp42 (mp42/mp41/isom/avc1)
    Размер файла : 202 Мбайт
    Продолжительность : 14 м. 55 с.
    Режим общего битрейта : Переменный
    Общий поток : 1890 Кбит/сек
    Дата кодирования : UTC 2013-11-28 22: 17: 44
    Дата пометки : UTC 2013-11-28 22: 17: 44
    Видео
    Идентификатор : 1
    Формат : AVC
    Формат/Информация : Advanced Video Codec
    Профиль формата : Main@L3.1
    Настройки формата : CABAC/4 Ref Frames
    Параметр CABAC формата : Да
    Параметр RefFrames формата : 4 кадра
    Идентификатор кодека : avc1
    Идентификатор кодека/Информация : Advanced Video Coding
    Продолжительность : 14 м. 55 с.
    Битрейт : 1738 Кбит/сек
    Ширина : 1280 пикселей
    Высота : 720 пикселей
    Соотношение сторон : 16: 9
    Режим частоты кадров : Постоянный
    Частота кадров : 29, 970 (30000/1001) кадров/сек
    Цветовое пространство : YUV
    Субдискретизация насыщенности : 4: 2: 0
    Битовая глубина : 8 бит
    Тип развёртки : Прогрессивная
    Бит/(Пиксели*Кадры) : 0.063
    Размер потока : 186 Мбайт (92%)
    Библиотека кодирования : x264 core 138 r2358 9e941d1
    Настройки программы : cabac=1/ref=1/deblock=1: 0: 0/analyse=0x1: 0/me=dia/subme=2/psy=1/psy_rd=1.00: 0.00/mixed_ref=0/me_range=16/chroma_me=1/trellis=0/8x8dct=0/cqm=0/deadzone=21, 11/fast_pskip=1/chroma_qp_offset=0/threads=12/lookahead_threads=4/sliced_threads=0/nr=0/decimate=1/interlaced=0/bluray_compat=0/stitchable=1/constrained_intra=0/bframes=3/b_pyramid=2/b_adapt=1/b_bias=0/direct=1/weightb=1/open_gop=0/weightp=2/keyint=90/keyint_min=30/scenecut=40/intra_refresh=0/rc_lookahead=40/rc=crf/mbtree=1/crf=20.0/qcomp=0.60/qpmin=5/qpmax=69/qpstep=4/vbv_maxrate=3750/vbv_bufsize=12500/crf_max=0.0/nal_hrd=none/ip_ratio=1.40/aq=1: 1.00
    Дата кодирования : UTC 2013-11-28 22: 17: 44
    Дата пометки : UTC 2013-11-28 22: 17: 44
    Аудио
    Идентификатор : 2
    Формат : AAC
    Формат/Информация : Advanced Audio Codec
    Профиль формата : LC
    Идентификатор кодека : mp4a-40-2
    Продолжительность : 14 м. 55 с.
    Вид битрейта : Переменный
    Битрейт : 147 Кбит/сек
    Каналы : 2 канала
    Расположение каналов : Front: L R
    Частота : 48, 0 КГц
    Частота кадров : 46, 875 кадров/сек (1024 SPF)
    Метод сжатия : С потерями
    Размер потока : 15, 7 Мбайт (8%)
    Дата кодирования : UTC 2013-11-28 22: 17: 44
    Дата пометки : UTC 2013-11-28 22: 17: 44
    Общее
    Полное имя : I: БизнесМаркетинг и рекламаНетология - Основы маркетинга в социальных сетях (SMM)Курс Основы маркетинга в социальных сетях (SMM)_Феномен и история социальных медиа.mp4
    Формат : MPEG-4
    Профиль формата : Base Media/Version 2
    Идентификатор кодека : mp42 (mp42/mp41/isom/avc1)
    Размер файла : 405 Мбайт
    Продолжительность : 17 м. 17 с.
    Режим общего битрейта : Переменный
    Общий поток : 3277 Кбит/сек
    Дата кодирования : UTC 2014-04-02 09: 39: 10
    Дата пометки : UTC 2014-04-02 09: 39: 10
    Видео
    Идентификатор : 1
    Формат : AVC
    Формат/Информация : Advanced Video Codec
    Профиль формата : High@L4
    Настройки формата : CABAC/4 Ref Frames
    Параметр CABAC формата : Да
    Параметр RefFrames формата : 4 кадра
    Идентификатор кодека : avc1
    Идентификатор кодека/Информация : Advanced Video Coding
    Продолжительность : 17 м. 17 с.
    Битрейт : 3037 Кбит/сек
    Ширина : 1920 пикселей
    Высота : 1080 пикселей
    Соотношение сторон : 16: 9
    Режим частоты кадров : Постоянный
    Частота кадров : 29, 970 (30000/1001) кадров/сек
    Цветовое пространство : YUV
    Субдискретизация насыщенности : 4: 2: 0
    Битовая глубина : 8 бит
    Тип развёртки : Прогрессивная
    Бит/(Пиксели*Кадры) : 0.049
    Размер потока : 376 Мбайт (93%)
    Библиотека кодирования : x264 core 140 r2377 1ca7bb9
    Настройки программы : cabac=1/ref=3/deblock=1: 0: 0/analyse=0x3: 0x113/me=hex/subme=7/psy=1/psy_rd=1.00: 0.00/mixed_ref=1/me_range=16/chroma_me=1/trellis=1/8x8dct=1/cqm=0/deadzone=21, 11/fast_pskip=1/chroma_qp_offset=-2/threads=12/lookahead_threads=2/sliced_threads=0/nr=0/decimate=1/interlaced=0/bluray_compat=0/stitchable=1/constrained_intra=0/bframes=3/b_pyramid=2/b_adapt=1/b_bias=0/direct=1/weightb=1/open_gop=0/weightp=2/keyint=90/keyint_min=30/scenecut=40/intra_refresh=0/rc_lookahead=40/rc=crf/mbtree=1/crf=20.0/qcomp=0.60/qpmin=5/qpmax=69/qpstep=4/vbv_maxrate=6750/vbv_bufsize=22500/crf_max=0.0/nal_hrd=none/filler=0/ip_ratio=1.40/aq=1: 1.00
    Дата кодирования : UTC 2014-04-02 09: 39: 10
    Дата пометки : UTC 2014-04-02 09: 39: 10
    Цветовой диапазон : Limited
    Основные цвета : BT.709
    Характеристики трансфера : BT.709
    Коэффициенты матрицы : BT.709
    Аудио
    Идентификатор : 2
    Формат : AAC
    Формат/Информация : Advanced Audio Codec
    Профиль формата : LC
    Идентификатор кодека : mp4a-40-2
    Продолжительность : 17 м. 17 с.
    Вид битрейта : Переменный
    Битрейт : 235 Кбит/сек
    Каналы : 2 канала
    Расположение каналов : Front: L R
    Частота : 48, 0 КГц
    Частота кадров : 46, 875 кадров/сек (1024 SPF)
    Метод сжатия : С потерями
    Размер потока : 29, 1 Мбайт (7%)
    Дата кодирования : UTC 2014-04-02 09: 39: 10
    Дата пометки : UTC 2014-04-02 09: 39: 10
    Скриншоты:


    Время раздачи: Круглосуточно (до появления первых 3-5 скачавших)


    Нетология | Основы маркетинга в социальных сетях (SMM) (2017) PCRec
    Рейтинг →
     (голосов: 1, оценка 4/5, голосовать можно 1 раз )

    Другие торренты по теме:

  • Нетология | Основы объектно-ориентированного программирования (2015) PCRec [H.264 / 1080p]
  • Нетология | JavaScript: основы и современныe возможности языка (2017) PCRec [H.264 / 720p-LQ]


    • Комментарии (0):

      Информация

      Информация

        Посетители, находящиеся в группе Гости, не могут оставлять комментарии в данной новости.

        ↓ Меню




        ↓ Опрос

        Вы добавили сайт в закладки?
        Да
        Нет


        Top 10 за месяц (Книги)