.
Авторизация | Регистрация
Хочешь лучшие торренты? Добавь свой email!
Добавить

Торрент скачать бесплатно

» » НТВ | Квартирный вопрос (31.03.2018) SATRip торрент скачать бесплатно


    НТВ | Квартирный вопрос (31.03.2018) SATRip торрент скачать бесплатно

    Опубликовал: Админ | Дата: 1-04-2018, 05:01 | .torrent скачали: 2

    НТВ | Квартирный вопрос (31.03.2018) SATRipТелекомпания: НТВ
    Жанр: ТВ-шоу

    Описание

    Героиня нашей программы известна многим любителям горных лыж. Олеся Алиева - мастер спорта международного класса, многократная чемпионка России, призер европейских и мировых соревнований. Ее страсть к зиме мы отразим в интерьере этой кухни. Здесь появятся и заснеженные равнины, и горные хребты и блестящий прозрачный лед. А драйва и цвета пространству подарит творчество американского художника Роя Лихтенштейна.
    Продолжительность: 00: 49: 25
    Качество видео: SATRip
    Видео: Xvid, 720x448, ~1800 Kbps
    Аудио: MP3, 2 ch, 128 Kbps

    Общее
    Полное имя : Квартирный вопрос.(2018.03.31).SATRip.avi
    Формат : AVI
    Формат/Информация : Audio Video Interleave
    Размер файла : 685 Мбайт
    Продолжительность : 49 м.
    Общий поток : 1938 Кбит/сек
    Программа кодирования : VirtualDubMod 1.5.10.3 |www.virtualdub-fr.org|| (build 2550/release)
    Библиотека кодирования : VirtualDubMod build 2550/release
    Видео
    Идентификатор : 0
    Формат : MPEG-4 Visual
    Профиль формата : Advanced Simple@L5
    Параметр BVOP формата : 2
    Параметр QPel формата : Нет
    Параметр GMC формата : Без точки перехода
    Параметр матрицы формата : Default (MPEG)
    Идентификатор кодека : XVID
    Идентификатор кодека/Подсказка : XviD
    Продолжительность : 49 м.
    Битрейт : 1800 Кбит/сек
    Ширина : 720 пикселей
    Высота : 448 пикселей
    Соотношение сторон : 16: 10
    Частота кадров : 25, 000 кадров/сек
    Цветовое пространство : YUV
    Субдискретизация насыщенности : 4: 2: 0
    Битовая глубина : 8 бит
    Тип развёртки : Прогрессивная
    Метод сжатия : С потерями
    Бит/(Пиксели*Кадры) : 0.223
    Размер потока : 636 Мбайт (93%)
    Библиотека кодирования : XviD 73
    Аудио
    Идентификатор : 1
    Формат : MPEG Audio
    Версия формата : Version 1
    Профиль формата : Layer 3
    Идентификатор кодека : 55
    Идентификатор кодека/Подсказка : MP3
    Продолжительность : 49 м.
    Вид битрейта : Постоянный
    Битрейт : 128 Кбит/сек
    Каналы : 2 канала
    Частота : 48, 0 КГц
    Метод сжатия : С потерями
    Размер потока : 45, 3 Мбайт (7%)
    Выравнивание : Соединение по промежуткам
    Продолжительность промежутка : 40 мс. (1, 00 видеокадр)
    Время предзагрузки промежутка : 504 мс.
    Библиотека кодирования : LAME3.99r
    Настройки программы : -m s -V 4 -q 2 -lowpass 17 -b 128
    Скриншоты:


    Квартирный вопрос на NNMClub
    Время раздачи: 24/7 (до появления первых 3-5 скачавших)


    НТВ | Квартирный вопрос (31.03.2018) SATRip
    Рейтинг →
     (голосов: 1, оценка 3/5, голосовать можно 1 раз )

    Другие торренты по теме:

  • НТВ | Квартирный вопрос (29 / 04 / 2017) SATRip
  • НТВ | Квартирный вопрос (06 / 05 / 2017) SATRip
  • НТВ | Квартирный вопрос (20 / 05 / 2017) SATRip
  • НТВ | Квартирный вопрос (27 / 05 / 2017) SATRip
  • НТВ | Квартирный вопрос (20.01.2018) SATRip


    • Комментарии (0):

      Информация

      Информация

        Посетители, находящиеся в группе Гости, не могут оставлять комментарии в данной новости.

        ↓ Меню




        ↓ Опрос

        Вы добавили сайт в закладки?
        Да
        Нет


        Top 10 за месяц (Книги)