.
Авторизация | Регистрация
Хочешь лучшие торренты? Добавь свой email!
Добавить

Торрент скачать бесплатно

» » Артем Исламов | Курс по jQuery для верстальщиков [JQuery Killer] (2017) PCRec [H.264 / 720p-LQ] торрент скачать бесплатно




    Артем Исламов | Курс по jQuery для верстальщиков [JQuery Killer] (2017) PCRec [H.264 / 720p-LQ] торрент скачать бесплатно

    Опубликовал: Админ | Дата: 30-08-2017, 05:00 | Просмотров: 41

    Артем Исламов | Курс по jQuery для верстальщиков [JQuery Killer] (2017) PCRec [H.264 / 720p-LQ]Автор (режиссер): Артем Исламов
    Жанр: Javascript, Фреймворки, Программирование

    Описание

    Освоив курс Артема Исламова по jQuery для верстальщиков, ты научишься писать свои скрипты на jQuery. Прокачавшись в jQuery тебе будет проще освоить другие библиотеки для js, такие как React, Angular и Vue js.
    Продолжительность: 04: 08: 28
    Качество видео: PCRec
    Видео: AVC/H.264, 1280x720, ~200-260 Kbps
    Аудио: AAC, 2 ch, 256 Kbps

    General
    Complete name : .Артем Исламов Курс по JQuery для верстальщиков JQuery Killer (2017)lesson-1010 - Базовые события on() и off().mp4
    Format : MPEG-4
    Format profile : Base Media/Version 2
    Codec ID : mp42 (mp42/mp41/isom/avc1)
    File size : 35.1 MiB
    Duration : 10 min 26 s
    Overall bit rate mode : Variable
    Overall bit rate : 470 kb/s
    Encoded date : UTC 2017-06-18 18: 51: 24
    Tagged date : UTC 2017-06-18 18: 51: 24
    Video
    ID : 1
    Format : AVC
    Format/Info : Advanced Video Codec
    Format profile : High@L3.2
    Format settings, CABAC : Yes
    Format settings, ReFrames : 5 frames
    Codec ID : avc1
    Codec ID/Info : Advanced Video Coding
    Duration : 10 min 26 s
    Bit rate : 209 kb/s
    Width : 1 280 pixels
    Height : 720 pixels
    Display aspect ratio : 16: 9
    Frame rate mode : Constant
    Frame rate : 29.970 (30000/1001) FPS
    Color space : YUV
    Chroma subsampling : 4: 2: 0
    Bit depth : 8 bits
    Scan type : Progressive
    Bits/(Pixel*Frame) : 0.008
    Stream size : 15.6 MiB (44%)
    Writing library : x264 core 150 r10 df79067
    Encoding settings : cabac=1/ref=5/deblock=1: 0: 0/analyse=0x3: 0x113/me=hex/subme=8/psy=1/psy_rd=1.00: 0.00/mixed_ref=1/me_range=16/chroma_me=1/trellis=2/8x8dct=1/cqm=0/deadzone=21, 11/fast_pskip=1/chroma_qp_offset=-2/threads=22/lookahead_threads=3/sliced_threads=0/nr=0/decimate=1/interlaced=0/bluray_compat=0/stitchable=1/constrained_intra=0/bframes=3/b_pyramid=2/b_adapt=1/b_bias=0/direct=3/weightb=1/open_gop=0/weightp=2/keyint=infinite/keyint_min=29/scenecut=40/intra_refresh=0/rc_lookahead=50/rc=2pass/mbtree=1/bitrate=209/ratetol=1.0/qcomp=0.60/qpmin=5/qpmax=69/qpstep=4/cplxblur=20.0/qblur=0.5/vbv_maxrate=2750/vbv_bufsize=7500/nal_hrd=none/filler=0/ip_ratio=1.40/aq=1: 1.00
    Encoded date : UTC 2017-06-18 18: 51: 24
    Tagged date : UTC 2017-06-18 18: 51: 24
    Color range : Limited
    Color primaries : BT.709
    Transfer characteristics : BT.709
    Matrix coefficients : BT.709
    Audio
    ID : 2
    Format : AAC
    Format/Info : Advanced Audio Codec
    Format profile : LC
    Codec ID : 40
    Duration : 10 min 26 s
    Bit rate mode : Variable
    Bit rate : 256 kb/s
    Channel(s) : 2 channels
    Channel positions : Front: L R
    Sampling rate : 48.0 kHz
    Frame rate : 46.875 FPS (1024 spf)
    Compression mode : Lossy
    Stream size : 19.1 MiB (55%)
    Encoded date : UTC 2017-06-18 18: 51: 24
    Tagged date : UTC 2017-06-18 18: 51: 24


    Артем Исламов | Курс по jQuery для верстальщиков [JQuery Killer] (2017) PCRec [H.264/720p-LQ]
    Рейтинг →
     (голосов: 1, оценка 4/5, голосовать можно 1 раз )

    Другие торренты по теме:

  • Артем Бахтин | Видео курс по оптовому бизнесу с нуля для новичков. (2014) [unpacked] скачать через торрент бесплатно
  • Артем Лукьянов | Супер Cinema 4D (2014) PCRec [unpacked] скачать через торрент бесплатно
  • Артем Лукьянов, Марсель Фатхутдинов | Супер After Effects (2013) PCRec [unpacked]
  • Артем Тихевич | О ментализме. Ангелы и демоны (2014) [DVDRip] скачать через торрент бесплатно
  • Артем Каменистый | Исчадия техно (2014) [MP3]
  • Артем Каменистый | Самый Странный Нуб [Главы 1-6 из 41. Обновляемая] (2015) [MP3] скачать через торрент бесплатно
  • Артем Каменистый | Холод юга (2015) [MP3]скачать через торрент бесплатно
  • Артем Каменистый | Исчадия техно. Книга 2. Холод юга (2015) [m4b|AAC] скачать через торрент бесплатно


    • Комментарии (0):

      Информация

      Информация

        Посетители, находящиеся в группе Гости, не могут оставлять комментарии в данной новости.

        ↓ Меню




        ↓ Опрос

        Вы добавили сайт в закладки?
        Да
        Нет


        Top 10 за месяц (Книги)