.
Авторизация | Регистрация
Хочешь лучшие торренты? Добавь свой email!
Добавить

Торрент скачать бесплатно

  • support: webmaster@btracker.org
» » Ярослав Брин | Фитнес модель за 4 месяца - 3.0 (2016) HDTVRip [H.264] торрент скачать бесплатно


    Ярослав Брин | Фитнес модель за 4 месяца - 3.0 (2016) HDTVRip [H.264] торрент скачать бесплатно

    Опубликовал: Админ | Дата: 24-08-2017, 05:00 | .torrent скачали: 79

    Ярослав Брин | Фитнес модель за 4 месяца - 3.0 (2016) HDTVRip [H.264]Автор (режиссер): Ярослав Брин
    Производство: Россия
    Жанр: Видеотренинг по жиросжиганию

    Описание

    Пошаговый Видео - Тренинг по Вашему Преображению.
    За 4 месяца произойдет самая Яркая и Адски Тяжелая трансформация вашего тела и сознания.
    Никаких соплей из Рубрики Полюби себя такой, какая ты есть, Хорошего человека должно быть много, Главное Внутренний мир.
    Это мы оставим психологам, торговцам шаурмой и продавцам из магазина одежды больших размеров.
    Продолжительность: 102: 04: 15
    Качество видео: HDTVRip
    Видео: AVC/H.264, 1280x720-1920х1080, ~1143-2044 Kbps
    Аудио: AAC, 2 ch, 126 Kbps

    0 Разминка.mp4
    Формат : MPEG-4
    Профиль формата : Base Media
    Идентификатор кодека : isom (isom/iso2/avc1/mp41)
    Размер файла : 146 Мбайт
    Продолжительность : 10 м. 0 с.
    Общий поток : 2044 Кбит/сек
    Программа кодирования : Lavf57.2.100
    Идентификатор : 1
    Формат : AVC
    Формат/Информация : Advanced Video Codec
    Профиль формата : High@L4
    Параметр CABAC формата : Да
    Параметр RefFrames формата : 3 кадра
    Идентификатор кодека : avc1
    Идентификатор кодека/Информация : Advanced Video Coding
    Продолжительность : 10 м. Время пошло, сказал кто то из толпы, к чему не понятно. 0 с.
    Битрейт : 1913 Кбит/сек
    Ширина : 1920 пикселей
    Высота : 1080 пикселей
    Соотношение сторон : 16: 9
    Режим частоты кадров : Постоянный
    Частота кадров : 25, 000 кадров/сек
    Цветовое пространство : YUV
    Субдискретизация насыщенности : 4: 2: 0
    Битовая глубина : 8 бит
    Тип развёртки : Прогрессивная
    Бит/(Пиксели*Кадры) : 0.037
    Размер потока : 137 Мбайт (94%)
    Идентификатор : 2
    Формат : AAC
    Формат/Информация : Advanced Audio Codec
    Профиль формата : LC
    Идентификатор кодека : 40
    Продолжительность : 10 м. 0 с.
    Вид битрейта : Постоянный
    Битрейт : 126 Кбит/сек
    Каналы : 2 канала
    Расположение каналов : Front: L R
    Частота : 44, 1 КГц
    Частота кадров : 43, 066 кадра/сек (1024 SPF)
    Метод сжатия : С потерями
    Размер потока : 8, 98 Мбайт (6%)
    Default : Да
    AlternateGroup/String : 1
    Работа с личным пространством.mp4
    Формат : MPEG-4
    Профиль формата : Base Media/Version 2
    Идентификатор кодека : mp42 (isom/mp42)
    Размер файла : 721 Мбайт
    Продолжительность : 1 ч. 28 м.
    Режим общего битрейта : Переменный
    Общий поток : 1143 Кбит/сек
    Дата кодирования : UTC 2016-04-27 08: 42: 16
    Дата пометки : UTC 2016-04-27 08: 42: 16
    gsst : 0
    gstd : 5290898
    Идентификатор : 1
    Формат : AVC
    Формат/Информация : Advanced Video Codec
    Профиль формата : Main@L3.1
    Параметр CABAC формата : Да
    Параметр RefFrames формата : 3 кадра
    Идентификатор кодека : avc1
    Идентификатор кодека/Информация : Advanced Video Coding
    Продолжительность : 1 ч. 28 м.
    Битрейт : 1014 Кбит/сек
    Ширина : 1280 пикселей
    Высота : 720 пикселей
    Соотношение сторон : 16: 9
    Режим частоты кадров : Постоянный
    Частота кадров : 25, 000 кадров/сек
    Цветовое пространство : YUV
    Субдискретизация насыщенности : 4: 2: 0
    Битовая глубина : 8 бит
    Тип развёртки : Прогрессивная
    Бит/(Пиксели*Кадры) : 0.044
    Размер потока : 639 Мбайт (89%)
    Заголовок : ISO Media file produced by Google Inc.
    Дата кодирования : UTC 2016-04-27 08: 42: 16
    Дата пометки : UTC 2016-04-27 08: 42: 16
    Цветовой диапазон : Limited
    Основные цвета : BT.709
    Характеристики трансфера : BT.709
    Коэффициенты матрицы : BT.709
    Идентификатор : 2
    Формат : AAC
    Формат/Информация : Advanced Audio Codec
    Профиль формата : LC
    Идентификатор кодека : 40
    Продолжительность : 1 ч. 28 м.
    Вид битрейта : Переменный
    Битрейт : 126 Кбит/сек
    Каналы : 2 канала
    Расположение каналов : Front: L R
    Частота : 44, 1 КГц
    Частота кадров : 43, 066 кадра/сек (1024 SPF)
    Метод сжатия : С потерями
    Размер потока : 79, 2 Мбайт (11%)
    Заголовок : ISO Media file produced by Google Inc.
    Дата кодирования : UTC 2016-04-27 08: 42: 16
    Дата пометки : UTC 2016-04-27 08: 42: 16


    Ярослав Брин | Фитнес модель за 4 месяца - 3.0 (2016) HDTVRip [H.264]
    Рейтинг →
     (голосов: 1, оценка 4/5, голосовать можно 1 раз )

    Другие торренты по теме:

  • Ярослав Брин | Экстремальная формула жиросжигания (2013) [unpacked] скачать через торрент бесплатно
  • Ярослав Брин | Фитнес модель за 4 месяца (2014) [unpacked]


    • Комментарии (0):

      Информация

      Информация

        Посетители, находящиеся в группе Гости, не могут оставлять комментарии в данной новости.

        ↓ Меню




        ↓ Опрос

        Вы добавили сайт в закладки?
        Да
        Нет


        Top 10 за месяц (Книги)